10cc ‎– Two Classic Albums By 10cc

Label:
DCC Compact Classics ‎– DZS-053
Format:
CD, Compilation
Country:
Released:
Genre:
Style:
 

Companies, etc.

Credits

Notes

Remastered at Chop Em Out, Trinity Mews, London and Location Recording Service, Burbank, California.

Originally released on UK/London Records, 1972-1974.

Barcode and Other Identifiers

  • Barcode (Text): 0 1096-30053-2 5
  • Matrix / Runout: 113321-D1-0240-1 DISCTRONICS USA *DZS053*

Other Versions (5 of 14) View All

Cat# Artist Title (Format) Label Cat# Country Year
CCSCD214 10 CC* The Collection(CD, Comp) Castle Communications CCSCD214 UK 1989 Sell This Version
SMD CD 303 10cc Two From Ten(2xCD, Comp) Snapper Music SMD CD 303 UK 2000 Sell This Version
DZC-053 10cc Two Classic Albums By 10cc(Cass, Comp, Dol) DCC Compact Classics DZC-053 US 1990 Sell This Version
CDGLP 446 10cc 20 Greatest Hits(CD, Comp) Green Line Records CDGLP 446 Italy 1989 Sell This Version
CCSMC 214 10CC* The Collection(Cass, Comp) Castle Communications CCSMC 214 UK 1989 Sell This Version

Recommendations

Reviews

Add Review

ispace

ispace

August 18, 2018
foobar2000 1.3.17 / Dynamic Range Meter 1.1.1
log date: 2018-08-19 12:11:00

--------------------------------------------------------------------------------
Analyzed: 10cc / Two Classic Albums By 10cc: "10cc" & "Sheet Music"
--------------------------------------------------------------------------------

DR Peak RMS Duration Track
--------------------------------------------------------------------------------
DR14 -0.83 dB -17.83 dB 5:19 01-Rubber Bullets
DR13 -1.95 dB -17.63 dB 3:40 02-Johnny Don't Do It
DR14 -3.54 dB -19.64 dB 3:41 03-Sand In My Face
DR13 -1.32 dB -17.42 dB 2:58 04-Donna
DR12 -1.17 dB -16.28 dB 3:07 05-The Dean And I
DR12 -0.66 dB -14.53 dB 3:34 06-Headline Hustler
DR12 -1.61 dB -16.99 dB 3:52 07-Speed Kills
DR13 -1.02 dB -16.99 dB 2:45 08-The Hospital Song
DR13 -1.93 dB -17.35 dB 3:08 09-Ships Don't Disappear In The Night (Do They?)
DR12 -1.79 dB -18.10 dB 3:12 10-Fresh Air For My Mama
DR12 0.00 dB -15.16 dB 4:06 11-The Wall Street Shuffle
DR14 -0.73 dB -18.02 dB 2:48 12-The Worst Band In The World
DR12 0.00 dB -15.99 dB 4:55 13-Hotel
DR12 -0.70 dB -18.53 dB 3:23 14-Old Wild Men
DR11 0.00 dB -14.00 dB 2:44 15-Clockwork Creep
DR12 -0.48 dB -15.06 dB 4:03 16-Silly Love
DR14 -0.67 dB -18.87 dB 6:42 17-Somewhere In Hollywood
DR11 -1.14 dB -15.36 dB 3:49 18-Baron Samedi
DR12 -5.10 dB -19.21 dB 2:35 19-The Sacro-Iliac
DR14 -1.47 dB -17.42 dB 2:52 20-Oh Effendi
DR12 -0.98 dB -16.32 dB 3:38 21-Waterfall
--------------------------------------------------------------------------------

Number of tracks: 21
Official DR value: DR13

Samplerate: 44100 Hz
Channels: 2
Bits per sample: 16
Bitrate: 914 kbps
Codec: ALAC
================================================================================