Abigail Williams ‎– Becoming

Genre:
Style:
Year:

Tracklist

Ascension Sickness
Radiance
Elestial
Infinite Fields Of Mind
Three Days Of Darkness
Beyond The Veil

Versions (5)

Cat# Artist Title (Format) Label Cat# Country Year
CDL413CD Abigail Williams Becoming(CD, Album) Candlelight Records USA CDL413CD US 2012 Sell This Version
BLOOD-007 Abigail Williams Becoming(2xLP, Album, Ltd, RE) Blood Music (2) BLOOD-007 Finland 2012 Sell This Version
BLOOD-007 Abigail Williams Becoming(2xLP, Album, Ltd, RE, Red) Blood Music (2) BLOOD-007 Finland 2012 Sell This Version
BLOOD-007 Abigail Williams Becoming(2xLP, RM, TP, W/Lbl) Blood Music (2) BLOOD-007 Finland 2012 Sell This Version
CANDLE355CD Abigail Williams Becoming(CD, Album) Candlelight Records CANDLE355CD UK 2012 Sell This Version

Recommendations

Reviews Show All 2 Reviews

Add Review

TheVril

TheVril

February 14, 2021
referencing Becoming, 2xLP, Album, Ltd, RE, BLOOD-007

This pressing is excellent and definitely worth the price of admission. My copy is on black vinyl, no pops, hissing or unwanted noise.
Glennus

Glennus

December 1, 2019
referencing Becoming, 2xLP, Album, Ltd, RE, BLOOD-007

Fantastic sounding release of possibly their best album.

DR10 -0.19 dB -13.14 dB 11:10 01-Ascension Sickness
DR10 -0.29 dB -12.36 dB 5:31 02-Radiance
DR10 -0.01 dB -13.19 dB 8:13 03-Elestial
DR10 -0.18 dB -12.86 dB 10:07 04-Infinite Fields Of Mind
DR11 -7.16 dB -23.64 dB 2:27 05-Three Days Of Darkness
DR11 -0.36 dB -14.86 dB 17:31 06-Beyond The Veil
DR9 -0.59 dB -14.91 dB 5:20 07-Akasha
DR9 -0.58 dB -11.04 dB 5:26 08-Infernal Divide (Demo Version)
DR12 -2.32 dB -19.11 dB 16:38 09-Beyond The Veil (Orchestral Version)