Air Supply ‎– Air Supply

Label:
Rainbow (4) ‎– RCD 9081
Format:
CD, Album, Reissue
Country:
Released:
 
Genre:
Pop
Style:

Companies, etc.

Credits

Notes

Engineered at EMI Studios, Sydney.
"Love And Other Bruises" engineered at Albert Studio

Barcode and Other Identifiers

  • Barcode (text): 9 311532 908100
  • Rights Society: AMCOS
  • Matrix / Runout: RCD 1118 T701-8982 01

Other Versions (5 of 5) View All

Cat# Artist Title (Format) Label Cat# Country Year
SBP 234929 Air Supply Air Supply(LP, Album) CBS SBP 234929 Australia 1976 Sell This Version
RCD 1118 Air Supply Air Supply(CD, Album, RE) Rainbow (4) RCD 1118 Australia 1989 Sell This Version
PES 90413 Air Supply Air Supply(LP, Album) Columbia PES 90413 Canada 1976 Sell This Version
25·3P-232 Air Supply Strangers In Love(LP, Album) Epic 25·3P-232 Japan 1980 Sell This Version
RSVLP 002 Air Supply Air Supply(LP, Album) CBS RSVLP 002 Australia 1976 Sell This Version

Reviews

Add Review

ispace

ispace

February 9, 2018
foobar2000 1.3.17 / Dynamic Range Meter 1.1.1
log date: 2018-02-09 20:13:17

--------------------------------------------------------------------------------
Analyzed: Air Supply / Air Supply
--------------------------------------------------------------------------------

DR Peak RMS Duration Track
--------------------------------------------------------------------------------
DR14 -0.34 dB -17.57 dB 3:58 01-Feel The Breeze
DR15 -0.92 dB -19.84 dB 4:04 02-I Don't Believe You
DR13 -0.82 dB -17.62 dB 4:22 03-Empty Pages
DR15 -0.21 dB -18.51 dB 4:40 04-What A Life
DR14 -0.58 dB -18.55 dB 3:43 05-Secret Agent
DR14 -0.88 dB -17.70 dB 3:31 06-The Weight Is My Soul
DR13 -0.20 dB -18.43 dB 3:45 07-Love And Other Bruises
DR16 -0.93 dB -23.34 dB 4:26 08-It's Not Easy
DR16 -0.85 dB -18.81 dB 3:18 09-We Are All Alone
DR13 -2.10 dB -19.77 dB 3:48 10-Strangers In Love
DR15 -0.53 dB -19.16 dB 3:09 11-Ain't It A Shame
--------------------------------------------------------------------------------

Number of tracks: 11
Official DR value: DR15

Samplerate: 44100 Hz
Channels: 2
Bits per sample: 16
Bitrate: 763 kbps
Codec: ALAC
================================================================================