Al Jarreau ‎– High Crime

Genre:
Style:
Year:

Versions (41)

Cat# Artist Title (Format) Label Cat# Country Year
9 25106-1, 1-25106 Al Jarreau High Crime(LP, Album, Spe) Warner Bros. Records, Warner Bros. Records 9 25106-1, 1-25106 US 1984 Sell This Version
83843 Al Jarreau Delito Grave(LP, Album) Warner Bros. Records 83843 Argentina 1984 Sell This Version
LADO Al Jarreau High Crime (El Gran Crime)(LP, Album) WEA LADO Mexico 1984 Sell This Version
2 50807-2, 32XD-104, 9 25106-2 Al Jarreau High Crime(CD, Album) WEA, WEA, Warner Bros. Records 2 50807-2, 32XD-104, 9 25106-2 Japan 1984 Sell This Version
2 50807-2, 9 25106-2 Al Jarreau High Crime(CD, Album, Tar) WEA, Warner Bros. Records 2 50807-2, 9 25106-2 Germany 1984 Sell This Version
9 25106-2 Al Jarreau High Crime(CD, Album, Tar) Warner Bros. Records 9 25106-2 USA & Canada 1984 Sell This Version
9 25106-2 Al Jarreau High Crime(CD, Album, Tar) Warner Bros. Records 9 25106-2 US 1984 Sell This Version
Z-WBR 01251106.4 Al Jarreau High Crime(Cass, Album) Warner Bros. Records Z-WBR 01251106.4 Peru 1984 Sell This Version
250 807 - 4, WE 481 Al Jarreau High Crime(Cass, Album) WEA, WEA 250 807 - 4, WE 481 Germany 1984 Sell This Version
2 50807 - 4 Al Jarreau High Crime(Cass, Album) Warner Bros. Records 2 50807 - 4 US 1984 Sell This Version
9 25106 - 4, 4-25106 Al Jarreau High Crime(Cass, Album, AR,) Warner Bros. Records, Warner Bros. Records 9 25106 - 4, 4-25106 US 1984 Sell This Version
WB 25106-4 Al Jarreau High Crime(Cass, Album, Dol) Warner Bros. Records WB 25106-4 US 1984 Sell This Version
25 0807 1 Al Jarreau High Crime(LP, Album) Warner Bros. Records 25 0807 1 Italy 1984 Sell This Version
25 0807-1 Al Jarreau High Crime(LP, Album) WEA 25 0807-1 Italy 1984 Sell This Version
229 25 0807-1 Al Jarreau High Crime(LP, Album) Wea International 229 25 0807-1 Portugal 1984 Sell This Version
P-13022 Al Jarreau High Crime(LP, Album) WEA P-13022 Japan 1984 Sell This Version
WARNER-3075 Al Jarreau High Crime(LP, Album) Warner Bros. Records WARNER-3075 Venezuela 1984 Sell This Version
92 51061 Al Jarreau High Crime(LP, Album) Warner Bros. Records 92 51061 Canada 1984 Sell This Version
9 25106-1, 1-25106 Al Jarreau High Crime(LP, Album) Warner Bros. Records, Warner Bros. Records 9 25106-1, 1-25106 US 1984 Sell This Version
1-25106 Al Jarreau High Crime(LP, Album) Warner Bros. Records 1-25106 France 1984 Sell This Version
250 807-1 Al Jarreau High Crime(LP, Album) WEA 250 807-1 Europe 1984 Sell This Version
250807-1 Al Jarreau High Crime(LP, Album) WEA 250807-1 Greece 1984 Sell This Version
WIC 5068 Al Jarreau High Crime(LP, Album) Warner Bros. Records WIC 5068 South Africa 1984 Sell This Version
1-25106 Al Jarreau High Crime(LP, Album) WEA 1-25106 Brazil 1984 Sell This Version
250807-1 Al Jarreau High Crime(LP, Album) WEA 250807-1 Spain 1984 Sell This Version
250 807-1 Al Jarreau High Crime(LP, Album) WEA 250 807-1 Europe 1984 Sell This Version
250807-1 Al Jarreau High Crime(LP, Album) WEA 250807-1 Australia 1984 Sell This Version
W1-25106 Al Jarreau High Crime(LP, Album, Club) Warner Bros. Records W1-25106 US 1984 Sell This Version
250 807-1 Al Jarreau High Crime(LP, Album, Promo) WEA 250 807-1 Spain 1984 Sell This Version
250 807-1 Al Jarreau High Crime(LP, Album, TP, W/Lbl) WEA 250 807-1 Germany 1984 Sell This Version
2 50807-2, 9 25106-2 Al Jarreau High Crime(CD, Album, Tar) WEA, WEA 2 50807-2, 9 25106-2 Germany 1986 Sell This Version
W2 -25106 Al Jarreau High Crime(CD, Album, Club) Warner Bros. Records W2 -25106 US 1990 Sell This Version
557 848-2 Al Jarreau High Crime(CD, Album, RE) i.e. Music 557 848-2 UK 1998 Sell This Version
FRM 1132 Al Jarreau High Crime(CD, Album, RM) Friday Music FRM 1132 US 2009 Sell This Version
WPCR-14481 Al Jarreau High Crime(CD, Album, Ltd, RE, RM, Pap) WEA WPCR-14481 Japan 2012 Sell This Version
WPCR-28148 Al Jarreau High Crime(CD, Album, Ltd, RE, RM) Warner Bros. Records WPCR-28148 Japan 2014 Sell This Version
2 50807-2 Al Jarreau High Crime(CD, Album) WEA 2 50807-2 Germany Unknown Sell This Version
9 25106-2 Al Jarreau High Crime(CD, Album, RE) Warner Bros. Records 9 25106-2 US Unknown Sell This Version
9 25106-2 Al Jarreau High Crime(CD, Album, RE) Warner Bros. Records 9 25106-2 US Unknown Sell This Version
LDR 2596 Al Jarreau High Crime(CD, Album, Unofficial) Limited Edition (6) LDR 2596 Russia Unknown Sell This Version
250 807 - 4 Al Jarreau High Crime(Cass, Album, Lab) WEA 250 807 - 4 Germany Unknown Sell This Version

Recommendations

Reviews

Add Review

ispace

ispace

June 1, 2018
referencing High Crime, CD, Album, RE, 9 25106-2
foobar2000 1.3.17 / Dynamic Range Meter 1.1.1
log date: 2018-06-01 21:07:03

--------------------------------------------------------------------------------
Analyzed: Al Jarreau / High Crime
--------------------------------------------------------------------------------

DR Peak RMS Duration Track
--------------------------------------------------------------------------------
DR13 -1.85 dB -17.27 dB 4:28 01-Raging Waters
DR13 -1.68 dB -17.05 dB 4:43 02-Imagination
DR14 -1.17 dB -17.95 dB 4:10 03-Murphy's Law
DR16 -1.60 dB -20.86 dB 4:36 04-Tell Me
DR13 -2.06 dB -20.46 dB 4:20 05-After All
DR13 -1.42 dB -17.34 dB 4:32 06-High Crime
DR13 -4.06 dB -19.76 dB 4:01 07-Let's Pretend
DR14 -2.16 dB -18.74 dB 4:20 08-Sticky Wicket
DR13 -3.90 dB -19.08 dB 3:57 09-Love Speaks Louder Than Words
DR13 -4.39 dB -21.02 dB 4:55 10-Fallin'
--------------------------------------------------------------------------------

Number of tracks: 10
Official DR value: DR14

Samplerate: 44100 Hz
Channels: 2
Bits per sample: 16
Bitrate: 774 kbps
Codec: ALAC
================================================================================