Al Jarreau ‎– We Got By / Glow

Label:
Friday Music ‎– FRM-2224
Format:
CD, Album, Compilation, Remastered
Country:
Released:
Genre:
Style:

Tracklist Hide Credits

We Got By
1 Spirit 4:12
2 We Got By 5:06
3 Susan's Song 5:57
4 You Don't See Me
Guitar – Arthur Adams
4:57
5 Lock All The Gates 5:35
6 Raggedy Ann 3:04
7 Letter Perfect 4:18
8 Sweet Potato Pie 3:14
9 Aladdin's Lamp 4:56
Glow
10 Rainbow In Your Eyes
Arranged By [Vocal] – Nick DeCaroBass – Wilton FelderDrums – Joe CorreroElectric Piano – Tom CanningGuitar – Larry CarltonPercussion – Steve FormanSynthesizer, Ensemble [Sring] – Larry NashWritten-By – Leon Russell
3:07
11 Your Song
Bass – Willie WeeksDrums – Joe CorreroElectric Piano – Tom CanningGuitar – Larry CarltonPiano [Accoustic] – Joe SampleWritten-By – Bernie Taupin, Elton John
5:38
12 Agua De Beber
Bass – Wilton FelderDrums – Joe CorreroElectric Piano – Tom CanningGuitar – Larry CarltonPercussion – Steve FormanWritten-By – Jobim*, Gimbel*, DeMoraes*
3:55
13 Have You Seen The Child
Bass – Wilton FelderDrums – Joe CorreroElectric Piano – Tom CanningGuitar – Larry CarltonOrgan – Joe SampleTambourine – Steve FormanWritten-By – Al Jarreau
3:49
14 Hold On Me
Vocals, Effects [All] – Al JarreauWritten-By – Al Jarreau
1:47
15 Fire And Rain
Bass – Willie WeeksDrums – Joe CorreroElectric Piano – Tom CanningGuitar – Larry CarltonPercussion – Ralph MacDonaldPiano [Accoustic] – Joe SampleWritten-By – James Taylor (2)
4:49
16 Somebody's Watching You
Bass – Willie WeeksDrums – Joe CorreroElectric Piano – Tom CanningGuitar – Larry CarltonPercussion – Ralph MacDonaldSynthesizer – Larry NashWritten-By – Sylvester Stewart
3:46
17 Milwaukee
Bass – Paul StallworthDrums – Joe CorreroElectric Piano – Tom CanningGuitar – Larry CarltonPercussion – Ralph MacDonaldWritten-By – Al Jarreau
4:55
18 Glow
Bass – Willie WeeksDrums – Joe CorreroElectric Piano – Tom CanningGuitar – Larry CarltonPercussion – Ralph MacDonaldWritten-By – Al Jarreau
4:28

Companies, etc.

Credits

Notes

"Mastered from the original Warner Bros. tapes by Joe Reagoso"

Barcode and Other Identifiers

  • Barcode (Text): 8 29421 22240 8

Reviews

Add Review

ispace

ispace

February 8, 2018
foobar2000 1.3.17 / Dynamic Range Meter 1.1.1
log date: 2018-02-08 21:45:57

--------------------------------------------------------------------------------
Analyzed: Al Jarreau / We Got By / Glow
--------------------------------------------------------------------------------

DR Peak RMS Duration Track
--------------------------------------------------------------------------------
DR16 -0.18 dB -18.92 dB 4:12 01-Spirit
DR16 -0.34 dB -20.83 dB 5:06 02-We Got By
DR15 -1.07 dB -20.99 dB 5:57 03-Susan's Song
DR16 -0.33 dB -18.77 dB 4:57 04-You Don't See Me
DR16 -1.16 dB -23.68 dB 5:35 05-Lock All The Gates
DR15 -2.10 dB -19.26 dB 3:04 06-Raggedy Ann
DR13 -1.96 dB -18.30 dB 4:18 07-Letter Perfect
DR14 -1.49 dB -20.04 dB 3:14 08-Sweet Potato Pie
DR15 -5.91 dB -26.89 dB 4:56 09-Aladdin's Lamp
DR16 -0.85 dB -19.46 dB 3:07 10-Rainbow In Your Eyes
DR17 0.00 dB -22.26 dB 5:38 11-Your Song
DR17 -1.20 dB -21.06 dB 3:55 12-Agua De Beber
DR17 0.00 dB -19.94 dB 3:49 13-Have You Seen The Child
DR13 -5.22 dB -22.43 dB 1:47 14-Hold On Me
DR14 -1.84 dB -18.91 dB 4:49 15-Fire & Rain
DR19 -0.80 dB -23.53 dB 3:46 16-Somebody's Watching You
DR17 -2.88 dB -22.66 dB 4:55 17-Milwaukee
DR16 -2.59 dB -21.59 dB 4:28 18-Glow
--------------------------------------------------------------------------------

Number of tracks: 18
Official DR value: DR16

Samplerate: 44100 Hz
Channels: 2
Bits per sample: 16
Bitrate: 692 kbps
Codec: ALAC
================================================================================