Alexander O'Neal ‎– Hearsay

Genre:
Style:
Year:

Versions (31)

Cat# Artist Title (Format) Label Cat# Country Year
ZK 40320 Alexander O'Neal Hearsay(CD, Album) Tabu Records ZK 40320 US 1987 Sell This Version
ZK 40320 Alexander O'Neal Hearsay(CD, Album) Tabu Records ZK 40320 US 1987 Sell This Version
TBU 450936 2 Alexander O'Neal Hearsay(CD, Album) Tabu Records TBU 450936 2 Europe 1987 Sell This Version
TBU 450936 2 Alexander O'Neal Hearsay(CD, Album) Tabu Records TBU 450936 2 Europe 1987 Sell This Version
ZK-40320 Alexander O'Neal Hearsay(CD, Album) Tabu Records ZK-40320 Canada 1987 Sell This Version
450936 4 Alexander O'Neal Hearsay(Cass, Album) Tabu Records 450936 4 UK 1987 Sell This Version
TBU 450936 4 Alexander O'Neal Hearsay(Cass, Album) Tabu Records TBU 450936 4 Europe 1987 Sell This Version
FZT 40320 Alexander O'Neal Hearsay(Cass, Album, Dol) Tabu Records FZT 40320 USA & Canada 1987 Sell This Version
450936 1 Alexander O'Neal Hearsay(LP, Album) Tabu Records 450936 1 UK 1987 Sell This Version
FZ 40320 Alexander O'Neal Hearsay(LP, Album) Tabu Records FZ 40320 Canada 1987 Sell This Version
231.034 Alexander O'Neal Hearsay(LP, Album) Epic 231.034 Brazil 1987 Sell This Version
TBU 450936 1 Alexander O'Neal Hearsay(LP, Album) Epic TBU 450936 1 Greece 1987 Sell This Version
450936-1 Alexander O'Neal Hearsay(LP, Album) Epic 450936-1 Australia 1987 Sell This Version
450936 1 Alexander O'Neal Hearsay(LP, Album) Tabu Records 450936 1 UK 1987 Sell This Version
TBU 450936 1 Alexander O'Neal Hearsay(LP, Album) Tabu Records TBU 450936 1 Spain 1987 Sell This Version
TBU 450936 1, FZ 40320 Alexander O'Neal Hearsay(LP, Album) Tabu Records, Tabu Records TBU 450936 1, FZ 40320 Europe 1987 Sell This Version
28AP 3373 Alexander O'Neal Hearsay(LP, Album) Tabu Records 28AP 3373 Japan 1987 Sell This Version
328 Alexander O'Neal Hearsay(LP, Album) Epic 328 Venezuela 1987 Sell This Version
FZ 40320, Z 40320 Alexander O'Neal Hearsay(LP, Album, Car) Tabu Records, Tabu Records FZ 40320, Z 40320 US 1987 Sell This Version
FZ 40320, Z 40320 Alexander O'Neal Hearsay(LP, Album, Hub) Tabu Records, Tabu Records FZ 40320, Z 40320 US 1987 Sell This Version
CSCS 5113 Alexander O'Neal Hearsay(CD, Album) Tabu Records CSCS 5113 Japan 1990 Sell This Version
CDEMCJU (WM) 6086 Alexander O'Neal Hearsay(CD, Album, RE) Tabu Records, The Right Stuff CDEMCJU (WM) 6086 South Africa 2003 Sell This Version
72435-43846-2-2 Alexander O'Neal Hearsay(CD, Album, RE) Tabu Records, The Right Stuff 72435-43846-2-2 US 2003 Sell This Version
72435-43846-2-2 Alexander O'Neal Hearsay(CD, Album, RM) Tabu Records, The Right Stuff 72435-43846-2-2 Europe 2003 Sell This Version
CDSOL-5206 Alexander O'Neal Hearsay+5(CD, Album, RE, RM) Solid Records (6) CDSOL-5206 Japan 2013 Sell This Version
TABU 2005 Alexander O'Neal Hearsay(2xCD, Album, RM) Tabu Records TABU 2005 UK 2013 Sell This Version
TABULP007 Alexander O'Neal Hearsay(LP, Album, RP, Pur) Tabu Records TABULP007 Europe 2014 Sell This Version
NINETY22 Alexander O'Neal Hearsay(CD, Album) Tabu Records NINETY22 Europe 2015 Sell This Version
CDSOL-5258 Alexander O'Neal Hearsay+5(CD, Album, RE) Solid Records (6) CDSOL-5258 Japan 2016 Sell This Version
UVPR-10152 Alexander O'Neal Hearsay(CD, Album, Ltd, RE, RM) Solid Records (6), Tabu Records UVPR-10152 Japan 2016 Sell This Version
TBU 450936 2 Alexander O'Neal Hearsay(CD, Album, RP) Tabu Records TBU 450936 2 Europe Unknown Sell This Version

Recommendations

Reviews

Add Review

ispace

ispace

February 26, 2019
referencing Hearsay, CD, Album, TBU 450936 2
foobar2000 1.3.17 / Dynamic Range Meter 1.1.1
log date: 2019-02-26 20:35:24

--------------------------------------------------------------------------------
Analyzed: Alexander O'Neal / Hearsay
--------------------------------------------------------------------------------

DR Peak RMS Duration Track
--------------------------------------------------------------------------------
DR13 -8.25 dB -24.59 dB 0:35 01-Intro
DR14 -0.97 dB -16.82 dB 4:25 02-(What Can I Say) To Make You Love Me
DR14 -8.34 dB -27.22 dB 0:57 03-Intro
DR13 -3.54 dB -18.20 dB 4:01 04-Hearsay
DR12 -15.64 dB -30.69 dB 0:13 05-Intro
DR13 -1.54 dB -17.27 dB 4:38 06-The Lovers
DR13 -9.21 dB -27.50 dB 0:45 07-Intro
DR15 -1.08 dB -18.00 dB 3:56 08-Fake
DR13 -13.74 dB -30.20 dB 0:37 09-Intro
DR11 -1.00 dB -15.23 dB 4:09 10-Criticize
DR11 -3.72 dB -18.98 dB 0:28 11-Intro
DR12 -1.34 dB -15.88 dB 5:09 12-Never Knew Love Like This
DR11 -12.41 dB -29.74 dB 0:17 13-Intro
DR11 -2.27 dB -16.14 dB 5:59 14-Sunshine
DR13 -3.67 dB -18.59 dB 5:13 15-Crying Overtime
DR14 -10.19 dB -26.82 dB 0:25 16-Intro
DR12 -2.91 dB -17.92 dB 3:30 17-When The Party's Over
--------------------------------------------------------------------------------

Number of tracks: 17
Official DR value: DR13

Samplerate: 44100 Hz
Channels: 2
Bits per sample: 16
Bitrate: 874 kbps
Codec: ALAC
================================================================================