Bananarama ‎– The 12" Mixes

Label:
Liberation Records ‎– 650916 2
Series:
Format:
CD, Compilation
Country:
Released:
Genre:
Style:

Companies, etc.

Credits

Notes

(C) 1988 CBS Productions Pty. Limited/ (P) 1987 Liberation Records./ This compilation (P) 1987 Liberation Records

Barcode and Other Identifiers

  • Barcode (Text): 9 39965-091622
  • Label Code: LC0199

Recommendations

Reviews Show All 2 Reviews

Add Review

ispace

ispace

August 30, 2018
foobar2000 1.3.17 / Dynamic Range Meter 1.1.1
log date: 2018-08-30 21:39:53

--------------------------------------------------------------------------------
Analyzed: Bananarama / The 12" Mixes
--------------------------------------------------------------------------------

DR Peak RMS Duration Track
--------------------------------------------------------------------------------
DR13 -0.80 dB -15.91 dB 7:31 01-Venus (Extended Version)
DR15 -0.18 dB -16.44 dB 8:48 02-More Than Physical (Garage Mix)
DR12 -0.29 dB -14.35 dB 5:43 03-Robert De Niro's Waiting (12" Mix)
DR12 -0.94 dB -15.54 dB 4:53 04-Na Na Hey Hey Kiss Him Goodbye (12" Mix)
DR12 0.00 dB -14.34 dB 4:57 05-Cruel Summer (12" Mix)
--------------------------------------------------------------------------------

Number of tracks: 5
Official DR value: DR13

Samplerate: 44100 Hz
Channels: 2
Bits per sample: 16
Bitrate: 922 kbps
Codec: ALAC
================================================================================
mikedevery

mikedevery

March 11, 2017
Also released as a cassette with a different picture sleeve (featuring Siobhan)