Behemoth (3) ‎– Zos Kia Cultus (Here And Beyond)

Label:
Peaceville ‎– VILELP192
Format:
Vinyl, LP, Album, Reissue
Country:
Released:
Genre:
Style:

Tracklist

A1 Horns Ov Baphomet 6:37
A2 Modern Ïconoclasts 4:27
A3 Here And Beyond (Tïtanic Turn Ov Tïme) 3:26
A4 As Above So Below 5:01
A5 Blackest Ov The Black 3:44
A6 Hekau 718 0:53
B1 The Harlot Ov The Saïnts 2:47
B2 No Sympathy For Fools 3:49
B3 Zos Kïa Cvltvs 5:32
B4 Fornïcatus Benefïctus 0:52
B5 Typhonïan Soul Zodïack 4:30
B6 Heru Ra Ha: Let There Be Mïght 3:03

Notes

2010 reissue by Peaceville Records on standard black vinyl. Comes in a gatefold jacket with printed inner sleeve.

Barcode and Other Identifiers

  • Barcode: 801056819215
  • Matrix / Runout: Side A: VILELP192 BA05230-01 A1 HL
  • Matrix / Runout: Side B: VILELP192 BA05230-01 B1 HL

Other Versions (5 of 23) View All

Recommendations

Reviews Show All 3 Reviews

Add Review

Glennus

Glennus

October 2, 2020

Another outstanding sounding release by Peaceville.

DR10 -0.37 dB -12.68 dB 6:36 01-Horns Ov Baphomet
DR10 -0.67 dB -12.25 dB 4:27 02-Modern Ïconoclasts
DR10 -0.52 dB -12.58 dB 3:26 03-Here And Beyond (Tïtanic Turn Ov Tïme)
DR11 -0.03 dB -13.68 dB 5:00 04-As Above So Below
DR10 -1.28 dB -13.22 dB 3:44 05-Blackest Ov The Black
DR11 -3.85 dB -17.17 dB 0:53 06-Hekau 718
DR10 -0.84 dB -11.92 dB 2:47 07-The Harlot Ov The Saïnts
DR11 -0.56 dB -12.96 dB 3:49 08-No Sympathy For Fools
DR10 -0.85 dB -13.11 dB 5:31 09-Zos Kïa Cvltvs
DR11 -6.70 dB -20.26 dB 0:53 10-Fornïcatus Benefïctus
DR11 -0.52 dB -12.72 dB 4:29 11-Typhonïan Soul Zodïack
DR10 -0.85 dB -12.83 dB 3:01 12-Heru Ra Ha: Let There Be Mïght
iSHES

iSHES

July 26, 2019
Does it have a 16 page book with lyrics? Thanks!