Bill LaBounty ‎– Bill LaBounty

Genre:
Style:
Year:

Versions (18)

Cat# Artist Title (Format) Label Cat# Country Year
BSK 3632 Bill LaBounty Bill LaBounty(LP, Album, Los) Warner Bros. Records, Curb Records BSK 3632 US 1982 Sell This Version
WB M5 3632 Bill LaBounty Bill LaBounty(Cass, Album) Warner Bros. Records, Curb Records WB M5 3632 US 1982 Sell This Version
WB K 56 988 Bill LaBounty Bill LaBounty(LP, Album) Warner Bros. Records WB K 56 988 Germany 1982 Sell This Version
Warner 2948 Bill LaBounty Bill LaBounty(LP, Album) Warner Bros. Records Warner 2948 Venezuela 1982 Sell This Version
WBC 1530, BSK 3632 Bill LaBounty Bill LaBounty(LP, Album) Warner Bros. Records, Warner Bros. Records WBC 1530, BSK 3632 South Africa 1982 Sell This Version
WB K 56 988 Bill LaBounty Bill LaBounty(LP, Album) Warner Bros. Records, Curb Records WB K 56 988 France 1982 Sell This Version
P-11134 Bill LaBounty Bill LaBounty(LP, Album) Warner Bros. Records, Curb Records P-11134 Japan 1982 Sell This Version
BSK 3632 Bill LaBounty Bill LaBounty(LP, Album, Win) Warner Bros. Records, Curb Records BSK 3632 US 1982 Sell This Version
B23D-41089 Bill LaBounty Bill LaBounty(CD, Album) Curb Records B23D-41089 Japan 1990 Sell This Version
ALCB-315 Bill LaBounty Bill LaBounty(CD, Album, RE) Curb Records ALCB-315 Japan 1991 Sell This Version
CUR 477158 2 Bill LaBounty Bill LaBounty(CD, Album) Curb Records CUR 477158 2 France 1994 Sell This Version
COCB-83236 Bill LaBounty Bill LaBounty(CD, Album, RE) Curb Records COCB-83236 Japan 2000 Sell This Version
THCD-195 Bill LaBounty Bill LaBounty(CD, Album, RE, RM, Car) Think! Records THCD-195 Japan 2012 Sell This Version
SICP 30655 Bill LaBounty Bill LaBounty(CD, Album, RE, RM, Blu) Sony Records Int'l SICP 30655 Japan 2014 Sell This Version
SICP 4902 Bill LaBounty Bill LaBounty(CD, Album, RE, RM) Sony Records Int'l SICP 4902 Japan 2016 Sell This Version
468609 2 Bill LaBounty Bill LaBounty(CD, Album) Curb Records 468609 2 Europe Unknown Sell This Version
7001-2, LA 7001-2 Bill LaBounty Bill LaBounty(CD, Album) Curb Records, Curb Records 7001-2, LA 7001-2 France Unknown Sell This Version
652701 Bill LaBounty Bill LaBounty(CD, Album) Curb Records 652701 France Unknown Sell This Version

Recommendations

Reviews Show All 4 Reviews

Add Review

ispace

ispace

December 10, 2018
referencing Bill LaBounty, CD, Album, B23D-41089
foobar2000 1.3.17 / Dynamic Range Meter 1.1.1
log date: 2018-12-10 20:02:08

--------------------------------------------------------------------------------
Analyzed: Bill LaBounty / Bill LaBounty [JP 1990 CD]
--------------------------------------------------------------------------------

DR Peak RMS Duration Track
--------------------------------------------------------------------------------
DR12 -1.38 dB -16.63 dB 4:23 01-Livin' It Up
DR11 -1.78 dB -17.43 dB 3:51 02-Didn't Want To Say Goodbye
DR12 -0.89 dB -15.19 dB 4:22 03-Dream On
DR11 -1.58 dB -16.05 dB 4:17 04-Slow Fade
DR11 -1.40 dB -15.23 dB 3:46 05-Comin' Back
DR11 -0.94 dB -14.49 dB 3:57 06-Look Who's Lonely Now
DR12 -1.10 dB -16.04 dB 3:15 07-Never Gonna Look Back
DR12 -2.50 dB -19.45 dB 4:14 08-It Used To Be Me
DR11 -0.95 dB -15.56 dB 3:30 09-Nobody's Fool
DR12 -0.95 dB -16.10 dB 3:49 10-Secrets
--------------------------------------------------------------------------------

Number of tracks: 10
Official DR value: DR11

Samplerate: 44100 Hz
Channels: 2
Bits per sample: 16
Bitrate: 779 kbps
Codec: ALAC
================================================================================
tolsmusic

tolsmusic

September 21, 2018
referencing Bill LaBounty, LP, Album, Los, BSK 3632
Producer: Russ Titleman
Keyboards: Bill LaBounty, Clarence McDonald, Greg Phillinganes, Nyle Steiner, Ian Underwood
Guitar: Steve Lukather, Dean Parks
Bass: Chuck Rainey, Willie Weeks
Drums: Steve Gadd, Andy Newmark, Jeff Pocaro
Percussion: Lenny Castro
Background Vocals: Patti Austin, Stephen Bishop, Gwen Dickey, Bill LaBounty, Leslie Smith, James Taylor, Jennifer Warnes
Sax: David Sandborn
Claves: Russ Titleman
Tambourine: Russ Titleman
Horn Section: Jerry Hey, Kim Hutchcroft, Chuck Findley, David Sandborn
String Arrangements: Nick DeCaro, Johnny Mandel
Horn Arrangements: Jerry Hey
ispace

ispace

September 3, 2018
referencing Bill LaBounty, CD, Album, RE, RM, SICP 4902
foobar2000 1.3.17 / Dynamic Range Meter 1.1.1
log date: 2018-09-03 20:19:21

--------------------------------------------------------------------------------
Analyzed: Bill LaBounty / Bill LaBounty [JP 2016 CD]
--------------------------------------------------------------------------------

DR Peak RMS Duration Track
--------------------------------------------------------------------------------
DR11 0.00 dB -14.51 dB 4:22 01-Livin' It Up
DR11 0.00 dB -14.92 dB 3:51 02-Didn't Want To Say Goodbye
DR11 0.00 dB -13.39 dB 4:22 03-Dream On
DR11 0.00 dB -14.16 dB 4:17 04-Slow Fade
DR11 0.00 dB -12.63 dB 3:47 05-Comin' Back
DR10 0.00 dB -12.36 dB 3:57 06-Look Who's Lonely Now
DR11 0.00 dB -13.31 dB 3:15 07-Never Gonna Look Back
DR11 0.00 dB -15.78 dB 4:14 08-It Used To Be Me
DR9 0.00 dB -12.58 dB 3:30 09-Nobody's Fool
DR11 0.00 dB -13.74 dB 3:50 10-Secrets
--------------------------------------------------------------------------------

Number of tracks: 10
Official DR value: DR11

Samplerate: 44100 Hz
Channels: 2
Bits per sample: 16
Bitrate: 803 kbps
Codec: ALAC
================================================================================
juppydoo

juppydoo

October 31, 2014
referencing Bill LaBounty, CD, Album, 7001-2, LA 7001-2
very nice music: nearly like chris rea