Bill LaBounty ‎– Promised Love

Genre:
Style:
Year:

Versions (2)

Cat# Artist Title (Format) Label Cat# Country Year
T-492 Bill LaBounty Promised Love(LP, Album) 20th Century Records T-492 US 1975 Sell This Version
BIG PINK 512 Bill LaBounty Promised Love(CD, Album, RE, Pap) Big Pink BIG PINK 512 South Korea 2017 Sell This Version

Recommendations

Reviews

Add Review

ispace

ispace

March 27, 2018
edited about 1 year ago
referencing Promised Love, CD, Album, RE, Pap, BIG PINK 512
Disappointing dynamic range measurement...

foobar2000 1.3.17 / Dynamic Range Meter 1.1.1
log date: 2018-03-27 20:27:21

--------------------------------------------------------------------------------
Analyzed: Bill LaBounty / Promised Love [KR 2017 CD]
--------------------------------------------------------------------------------

DR Peak RMS Duration Track
--------------------------------------------------------------------------------
DR9 -0.10 dB -11.41 dB 3:30 01-Lie To Me
DR9 -0.10 dB -12.06 dB 3:30 02-Together
DR9 -0.10 dB -12.93 dB 3:27 03-Crazy
DR9 -0.10 dB -11.18 dB 3:47 04-I Hope You'll Be Very Unhappy Without Me
DR10 -0.10 dB -11.39 dB 3:39 05-Always Be Near
DR9 -0.10 dB -13.01 dB 4:40 06-Take A Step
DR11 -0.10 dB -13.10 dB 2:40 07-Pretty Little Angel
DR9 -0.10 dB -12.82 dB 3:46 08-Open Your Eyes
DR10 -0.10 dB -12.94 dB 3:01 09-Another Drunk
DR10 -0.10 dB -13.16 dB 1:40 10-Another Drunk (Outro)
--------------------------------------------------------------------------------

Number of tracks: 10
Official DR value: DR10

Samplerate: 44100 Hz
Channels: 2
Bits per sample: 16
Bitrate: 806 kbps
Codec: ALAC
================================================================================