Bill Wolfer ‎– Wolf

Label:
Unidisc ‎– AGEK-2566
Format:
CD, Album
Country:
Released:
Genre:
Style:

Credits

  • Engineer [Additional]John van Ness*, Keith Seppanen
  • Engineer, Mixed ByEd Sanders (2)
  • Mastered ByChris Bellman
  • PercussionWayne O. Millstein (tracks: A1, A4, B4)
  • Piano [Acoustic], Electric Piano [Rhodes], Synthesizer [Cs-80], Synthesizer [Mini-moog], Synthesizer [Micro Moog], Synthesizer [Prophet 5], Electronic Drums [Lmi Drumcomputer], Effects [Vocoder], Electric Piano [Arp 16-voice]Bill Wolfer
  • Producer, Arranged By, Programmed By [Synthesizer]Bill Wolfer
  • TechnicianJim Pace

Notes

Track 11 to 18 previously unreleased

Barcode and Other Identifiers

  • Barcode: 068381256607

Other Versions (5 of 6) View All

Cat# Artist Title (Format) Label Cat# Country Year
60187 Bill Wolfer Wolf(LP, Album) Constellation (2) 60187 US 1982 Sell This Version
96.0187-1, 96. 0187-1 Bill Wolfer Wolf(LP, Album) Constellation (2), Constellation (2) 96.0187-1, 96. 0187-1 Europe 1982 Sell This Version
60187 Bill Wolfer Wolf(LP, Album, Promo) Constellation (2) 60187 US 1982 Sell This Version
2891 Bill Wolfer Wolf(LP, Album) Elektra 2891 Venezuela 1982 Sell This Version
96.0187-1, 96. 0187-1 Bill Wolfer Wolf(LP, Album) Constellation (2), Constellation (2) 96.0187-1, 96. 0187-1 Scandinavia 1982 Sell This Version

Reviews

Add Review

ispace

ispace

June 28, 2018
foobar2000 1.3.17 / Dynamic Range Meter 1.1.1
log date: 2018-06-28 21:09:15

--------------------------------------------------------------------------------
Analyzed: Bill Wolfer / Wolf
--------------------------------------------------------------------------------

DR Peak RMS Duration Track
--------------------------------------------------------------------------------
DR10 0.00 dB -11.56 dB 4:00 01-Call Me
DR10 0.00 dB -11.82 dB 4:40 02-So Why
DR9 -0.40 dB -14.30 dB 3:52 03-Window On A Dream
DR11 -0.24 dB -14.41 dB 5:20 04-Papa Was A Rollin' Stone
DR9 -0.27 dB -11.33 dB 3:42 05-Nobody Knows
DR13 -0.15 dB -14.73 dB 4:37 06-Why Do You Do Me
DR10 -0.46 dB -13.02 dB 3:48 07-Wake Up
DR10 -0.93 dB -13.42 dB 3:31 08-Soaring
DR10 -0.21 dB -11.60 dB 5:43 09-Camouflage
DR11 -0.46 dB -12.59 dB 4:38 10-Pop Quiz
DR8 -0.66 dB -11.09 dB 4:13 11-You Are (One Sunny Day)
DR8 -0.11 dB -9.88 dB 4:02 12-I Will Get To You
DR8 -0.07 dB -9.73 dB 3:49 13-The Hard Way
DR11 -0.39 dB -12.04 dB 3:35 14-Little Miss Lover
DR8 -0.01 dB -9.89 dB 5:03 15-Aam And Eve
DR9 0.00 dB -12.37 dB 3:35 16-Somebody Loves You
DR10 -0.34 dB -12.34 dB 3:50 17-Love Games
DR8 -0.32 dB -10.03 dB 4:02 18-9000 Problems
--------------------------------------------------------------------------------

Number of tracks: 18
Official DR value: DR10

Samplerate: 44100 Hz
Channels: 2
Bits per sample: 16
Bitrate: 865 kbps
Codec: ALAC
================================================================================