Bonnie Raitt ‎– Sweet Forgiveness

Label:
Warner Bros. Records ‎– 7599-27309-2
Format:
CD, Album, Reissue, Remastered
Country:
Released:
 
Genre:
Style:

Tracklist Hide Credits

1 About To Make Me Leave Home
Written-By – Earl Randall
4:11
2 Runaway
Written-By – Del Shannon, Max Crook
3:53
3 Two Lives
Written-By – Mark Jordan
3:47
4 Louise
Written-By – Paul Siebel
2:43
5 Gamblin' Man
Written-By – Eric Kaz
3:25
6 Sweet Forgiveness
Written-By – Daniel Moore
4:07
7 My Opening Farewell
Written-By – Jackson Browne
5:17
8 Three Time Loser
Written-By – Don Covay, Ronald Miller (3)
3:15
9 Takin' My Time
Written-By – Bill Payne
3:34
10 Home
Written-By – Karla Bonoff
3:25

Companies, etc.

Credits

Notes

Disc: Made in Germany

Barcode and Other Identifiers

  • Barcode: 0 7599-27309-2 1
  • Label Code: LC0392
  • Rights Society: GEMA/BIEM
  • Matrix / Runout: [Warner logo] 759927309-2 RSA
  • Mould SID Code: IFPI 0522

Other Versions (5 of 29) View All

Cat# Artist Title (Format) Label Cat# Country Year
BS 2990 Bonnie Raitt Sweet Forgiveness(LP, Album, Gol) Warner Bros. Records BS 2990 US 1977 Sell This Version
2990-2 Bonnie Raitt Sweet Forgiveness(CD, Album, RE) Warner Bros. Records 2990-2 US Unknown Sell This Version
K 56323, BS 2990 Bonnie Raitt Sweet Forgiveness(LP, Album) Warner Bros. Records, Warner Bros. Records K 56323, BS 2990 UK 1977 Sell This Version
HWBS 321-149 (WL) Bonnie Raitt Sweet Forgiveness(LP, Album) Warner Bros. Records HWBS 321-149 (WL) Spain 1977 Sell This Version
M8 2990 Bonnie Raitt Sweet Forgiveness(8-Trk, Album) Warner Bros. Records M8 2990 US 1977 Sell This Version

Reviews

Add Review

ispace

ispace

May 25, 2018
foobar2000 1.3.17 / Dynamic Range Meter 1.1.1
log date: 2018-05-26 14:46:32

--------------------------------------------------------------------------------
Analyzed: Bonnie Raitt / Sweet Forgiveness
--------------------------------------------------------------------------------

DR Peak RMS Duration Track
--------------------------------------------------------------------------------
DR14 -1.68 dB -18.80 dB 4:15 01-About To Make Me Leave Home
DR14 -1.55 dB -18.54 dB 3:57 02-Runaway
DR12 -3.26 dB -19.20 dB 3:50 03-Two Lives
DR11 -6.94 dB -21.83 dB 2:46 04-Louise
DR13 -1.14 dB -16.93 dB 3:28 05-Gamblin' Man
DR12 -3.47 dB -19.59 dB 4:12 06-Sweet Forgiveness
DR13 -1.16 dB -18.62 dB 5:21 07-My Opening Farewell
DR13 -0.72 dB -17.52 dB 3:19 08-Three Time Loser
DR13 -1.33 dB -19.80 dB 3:38 09-Takin' My Time
DR13 -5.32 dB -21.83 dB 3:26 10-Home
--------------------------------------------------------------------------------

Number of tracks: 10
Official DR value: DR13

Samplerate: 44100 Hz
Channels: 2
Bits per sample: 16
Bitrate: 632 kbps
Codec: ALAC
================================================================================