Breakwater ‎– Breakwater

Genre:
Style:
Year:

Versions (16)

Cat# Artist Title (Format) Label Cat# Country Year
AB 4208 Breakwater Breakwater(LP, Album) Arista AB 4208 US 1978 Sell This Version
2C 070 62.545 Breakwater Breakwater(LP, Album) Arista 2C 070 62.545 France 1978 Sell This Version
AB 4208 Breakwater Breakwater(LP, Album) Arista AB 4208 US 1978 Sell This Version
AB 4208 Breakwater Breakwater(LP, Album, San) Arista AB 4208 US 1978 Sell This Version
AB 4208 Breakwater Breakwater(LP, Album) Arista AB 4208 Canada 1979 Sell This Version
BVCA-7337, 74321-31300-2 Breakwater Breakwater(CD, Album, Promo, RE) Arista, BMG, Arista, BMG BVCA-7337, 74321-31300-2 Japan 1995 Sell This Version
BVCA-7337, 74321-31300-2 Breakwater Breakwater(CD, Album, RE) BMG Victor Inc., Arista BVCA-7337, 74321-31300-2 Japan 1995 Sell This Version
BVJA-280 Breakwater Breakwater(LP, Album) Arista BVJA-280 Japan 1996 Sell This Version
BVJA-2804 Breakwater Breakwater(LP, Album, RE) Arista, BMG BVJA-2804 Japan 1996 Sell This Version
BVCM-35228, 88697-22890-2 Breakwater Breakwater(CD, Album, RM, Pap) Arista, Arista BVCM-35228, 88697-22890-2 Japan 2008 Sell This Version
BVCP 40135 Breakwater Breakwater(CD, Album, RE, RM) Arista BVCP 40135 Japan 2009 Sell This Version
GET-51269 Breakwater Breakwater(CD, Album, RE, Car) Get On Down GET-51269 US 2010 Sell This Version
NW0041CD Breakwater Breakwater(CD, Album, RE) Northworld Recordings, 4Worlds Media NW0041CD UK 2012 Sell This Version
SICP-4928 Breakwater Breakwater(CD, Album, Ltd, RE, RM) Arista SICP-4928 Japan 2016 Sell This Version
SICP 4928 Breakwater Breakwater(CD, Album, Ltd, RE, RM) Arista SICP 4928 Japan 2016 Sell This Version
AB 4208 Breakwater Breakwater(LP, Album, RE) Arista AB 4208 US Unknown Sell This Version

Recommendations

Reviews Show All 2 Reviews

Add Review

ispace

ispace

February 5, 2019
referencing Breakwater, CD, Album, RE, BVCA-7337, 74321-31300-2
foobar2000 1.3.17 / Dynamic Range Meter 1.1.1
log date: 2019-02-05 22:02:39

--------------------------------------------------------------------------------
Analyzed: Breakwater / Breakwater [JP 1995 CD]
--------------------------------------------------------------------------------

DR Peak RMS Duration Track
--------------------------------------------------------------------------------
DR15 -1.51 dB -18.43 dB 5:49 01-Work It Out
DR13 -1.95 dB -17.91 dB 4:47 02-You Know I Love You
DR14 -1.77 dB -18.16 dB 4:53 03-Unnecessary Business
DR15 -1.77 dB -18.47 dB 4:17 04-No Limit
DR14 -0.63 dB -17.05 dB 3:45 05-That's Not What We Came Here For
DR12 -0.24 dB -15.57 dB 4:34 06-Feel Your Way
DR13 -0.73 dB -16.81 dB 4:18 07-Do It Till the Fluid Gets Hot
DR13 -1.76 dB -16.83 dB 3:59 08-Free Yourself
--------------------------------------------------------------------------------

Number of tracks: 8
Official DR value: DR14

Samplerate: 44100 Hz
Channels: 2
Bits per sample: 16
Bitrate: 965 kbps
Codec: ALAC
================================================================================
kme-213

kme-213

April 13, 2018
referencing Breakwater, LP, Album, RE, AB 4208
Slightly worse sounding than OG pressing but still decent .