Buddy Miles ‎– Them Changes

Genre:
Style:
Year:

Tracklist

Them Changes 3:20
I Still Love You, Anyway 4:13
Heart's Delight 4:06
Dreams 4:52
Down By The River 6:20
Memphis Train 2:55
Paul B. Allen, Omaha, Nebraska 5:31
Your Feeling Is Mine 2:11

Versions (35)

Cat# Artist Title (Format) Label Cat# Country Year
SR-61280, SR61280 Buddy Miles Them Changes(LP, Album) Mercury, Mercury SR-61280, SR61280 US 1970 Sell This Version
6338042 Buddy Miles Esos Cambios (Them changes)(LP, Album) Mercury, Mercury 6338042 Argentina 1970 Sell This Version
6338042 Buddy Miles Esos Cambios(LP, Album) Mercury 6338042 Argentina 1970 Sell This Version
MCR 4-61280 Buddy Miles Them Changes(Cass, Album) Mercury MCR 4-61280 US 1970 Sell This Version
6338 016, SR 61280 Buddy Miles Them Changes(LP, Album) Mercury, Mercury 6338 016, SR 61280 Israel 1970 Sell This Version
6338 016 Buddy Miles Them Changes(LP, Album) Mercury 6338 016 UK 1970 Sell This Version
SR-61280, SR61280 Buddy Miles Them Changes(LP, Album) Mercury, Mercury SR-61280, SR61280 US 1970 Sell This Version
SR 61280 Buddy Miles Them Changes(LP, Album) Mercury SR 61280 Canada 1970 Sell This Version
SR 61280 Buddy Miles Them Changes(LP, Album) Mercury SR 61280 Canada 1970 Sell This Version
SFX-7262 Buddy Miles Them Changes(LP, Album) Mercury SFX-7262 Japan 1970 Sell This Version
SR 61280, SR61280 Buddy Miles Them Changes(LP, Album) Mercury, Mercury SR 61280, SR61280 US 1970 Sell This Version
RS152, 6338016, RS-152 Buddy Miles Them Changes(LP, Album) Mercury, Mercury, Mercury RS152, 6338016, RS-152 Australia 1970 Sell This Version
6463 007 Buddy Miles Them Changes(LP, Album) Mercury 6463 007 France 1970 Sell This Version
LP-5504, 6430 049 Buddy Miles Them Changes(LP, Album) PGP RTB, Fontana LP-5504, 6430 049 Yugoslavia 1970 Sell This Version
6338 016, SR 61280 Buddy Miles Them Changes(LP, Album, Gat) Mercury, Mercury 6338 016, SR 61280 Germany 1970 Sell This Version
63 38 016 Buddy Miles Them Changes(LP, Album, Gat) Mercury 63 38 016 Spain 1970 Sell This Version
6338 016 Buddy Miles Them Changes(LP, Album, Promo) Mercury 6338 016 Germany 1970 Sell This Version
SR 61280 Buddy Miles Them Changes(LP, Album, Promo) Mercury SR 61280 US 1970 Sell This Version
SR 61280 Buddy Miles Them Changes(LP, Album, TP) Mercury SR 61280 US 1970 Sell This Version
SR-61280, SR61280 Buddy Miles Them Changes(LP, Album, RE) Mercury, Philips, Vertigo SR-61280, SR61280 US 1973 Sell This Version
LMCD 9.51170 Z Buddy Miles Them Changes(CD, Album, RE) Linam Records LMCD 9.51170 Z Germany 1992 Sell This Version
063 693-2 Buddy Miles Them Changes(CD, Album, RE, RM, Dig) Mercury 063 693-2 Europe 2003 Sell This Version
MOVLP1066 Buddy Miles Them Changes(LP, Album, RE, RM, Gat) Mercury, Music On Vinyl MOVLP1066 Europe 2014 Sell This Version
063 693-2 Buddy Miles Them Changes(CD, Album, RE, RM, Dig) Mercury 063 693-2 Europe 2017 Sell This Version
UICY-78687 Buddy Miles Them Changes(CD, Album, Ltd, RE, RM, Pap) Mercury UICY-78687 Japan 2018 Sell This Version
0440 063 693-2 Buddy Miles Them Changes(CDr, Album, Promo, RE) Universal 0440 063 693-2 Europe Unknown Sell This Version
MCR-4-61280 Buddy Miles Them Changes(Cass, Album) Mercury MCR-4-61280 US Unknown Sell This Version
6430 049 Buddy Miles Them Changes(LP, Album) Fontana 6430 049 New Zealand Unknown Sell This Version
SR 61280 Buddy Miles Them Changes(LP, Album, Gat) Mercury SR 61280 US Unknown Sell This Version
SR 61280 Buddy Miles Them Changes(LP, Album, Gat) Mercury SR 61280 US Unknown Sell This Version
SR61280 Buddy Miles Them Changes(LP, Album, Gat) Mercury SR61280 US Unknown Sell This Version
6338 016, SR 61280 Buddy Miles Them Changes(LP, Album, Gat) Mercury, Mercury 6338 016, SR 61280 Germany Unknown Sell This Version
6430 049 Buddy Miles Them Changes(LP, Album, RE) Fontana 6430 049 Netherlands Unknown Sell This Version
SR 61280 Buddy Miles Them Changes(LP, Album, RE, Gat) Mercury SR 61280 US Unknown Sell This Version
SR61280 Buddy Miles Them Changes(LP, Album, Ter) Mercury SR61280 US Unknown Sell This Version

Recommendations

Reviews Show All 3 Reviews

Add Review

vouvounix

vouvounix

July 20, 2018
referencing Them Changes, CD, Album, Ltd, RE, RM, Pap, UICY-78687

Excellent sound and dynamic !

DR Peak RMS Filename
----------------------------------------------------------------------------------------------

DR12 -3.42 dB -20.28 dB 02 Buddy Miles - I Still Love You, Anyway.aiff
DR12 -0.85 dB -15.37 dB 04 Buddy Miles - Dreams.aiff
DR11 -1.92 dB -14.99 dB 03 Buddy Miles - Heart's Delight.aiff
DR11 -1.82 dB -16.80 dB 05 Buddy Miles - Down By The River.aiff
DR11 -1.28 dB -14.55 dB 06 Buddy Miles - Memphis Train.aiff
DR11 -0.20 dB -13.66 dB 01 Buddy Miles - Them Changes.aiff
DR13 -1.14 dB -16.30 dB 07 Buddy Miles - Paul B. Allen, Omaha, Nebraska.aiff
DR11 -1.27 dB -14.87 dB 08 Buddy Miles - Your Feeling Is Mine.aiff
----------------------------------------------------------------------------------------------

Number of Files: 8
Official DR Value: DR11

==========================================================================================
Jake_Plester_Coyne

Jake_Plester_Coyne

March 7, 2018
referencing Them Changes, LP, Album, RE, RM, Gat, MOVLP1066
This is truly a badddddd pressing. The master they have used might as well be a MP3 from YouTube. THERES EVEN A BIT IN "them changes" THE SONG SKIPS AND THE LEST CHANNEL STOPS PLAYING!!!
DarreLP

DarreLP

January 27, 2017
referencing Them Changes, LP, Album, SR-61280, SR61280
If you dig through the reviews of Buddy Miles ‎in general and this album specifically you'll find opinions all over the place. Seems the guy couldn't please everyone. Maybe it was due to him standing next to Hendrix and, well, anyone standing next to Hendrix will appear as the lesser musician. As for me, I really love this album. Bought it purely for the album cover (which I would argue is about as bad-ass as an album cover can get) and ended up really enjoying the music front to back. 'Them Changes' is masterpiece of a song (and I would argue, gets the better treatment here than it did on 'Band of Gypsys') and the cover of Young's 'Down By The River' is just about perfect. A groundbreaking album? No. A masterpiece? Probably not. A really solid middle-of-the-road blues rock album that should be in your collection if you come across it? Definitely.