Centrozoon ‎– Never Trust The Way You Are

Label:
Resonancer ‎– bp-res04ce01
Format:
CD, Album
Country:
Released:
Genre:
Style:

Tracklist Hide Credits

1 Like A 1000 Stars 0:32
2 Bigger Space
Drums [Additional], Percussion [Additional] – Pat MastelottoElectronics [Additional Treatments] – Bill Munyon
9:22
3 Ten Versions Of America
Electronics [Vocal Treatments] – Michael Peters (2)
4:29
4 Carpet Demon 3:59
5 Not You 1:28
6 Make Me Forget 4:57
7 Little Boy Smile 5:03
8 Song Unsung 0:59
09 Pop Killer
Drums [Additional], Percussion [Additional] – Pat Mastelotto
3:43
10 Skylight 4:13
11 The Scent Of Crash And Burn 4:07
12 Mother's Call 0:49
13 To The Other 2:48

Companies, etc.

Credits

Notes

Slipcased jewel case with 8 page fold-out booklet and additional 12 page fold-out lyric booklet.

Barcode and Other Identifiers

  • Barcode (Text): 4 260060 853015
  • Barcode (String): 4260060853015
  • Matrix / Runout: K's World GmbH Tel: ++49 (0) 5130/5833-0 A414957-01
  • Mastering SID Code: ifpi L571
  • Mould SID Code: IFPI 9701
  • Rights Society: GEMA
  • Label Code: LC 13771

Recommendations

Reviews

Add Review

J-Son-Quarc

J-Son-Quarc

June 12, 2016
Couple of nice tunes on this one. Unfortunately almost no DR.
Listening tips: #2, #13, #7, #9, #10.

----------------------------------------------------------------------------------------------
Album: Never Trust The Way You Are
Artist: Centrozoon
----------------------------------------------------------------------------------------------
DR Peak RMS Duration Title [codec]
----------------------------------------------------------------------------------------------
DR8 -0.10 dB -14.07 dB 0:33 01 - Like A 1000 Stars [flac]
DR6 -0.10 dB -7.19 dB 9:24 02 - Bigger Space [flac]
DR8 -0.10 dB -11.36 dB 4:29 03 - Ten Versions Of America [flac]
DR7 -0.10 dB -9.54 dB 3:58 04 - Carpet Demon [flac]
DR9 -2.30 dB -17.80 dB 1:30 05 - Not You [flac]
DR9 -0.10 dB -10.07 dB 4:58 06 - Make Me Forget [flac]
DR6 -0.10 dB -7.53 dB 5:04 07 - Little Boy Smile [flac]
DR10 -0.51 dB -21.56 dB 1:00 08 - Song Unsung [flac]
DR7 -0.10 dB -8.63 dB 3:43 09 - Pop Killer [flac]
DR8 -1.10 dB -13.34 dB 4:13 10 - Skylight [flac]
DR8 -0.10 dB -10.59 dB 4:08 11 - The Scent Of Crash And Burn [flac]
DR8 -0.66 dB -14.38 dB 0:50 12 - Mother's Call [flac]
DR11 -0.64 dB -15.30 dB 2:48 13 - To The Other [flac]
----------------------------------------------------------------------------------------------
Number of files: 13
Official DR value: DR8

Sampling rate: 44100 Hz
Average bitrate: 718kbs
Bits per sample: 16 bit

Dr14 T.meter 1.0.16
==============================================================================================