Chicago (2) ‎– Chicago 13

Genre:
Style:
Year:

Versions (50)

Cat# Artist Title (Format) Label Cat# Country Year
FC 36105 Chicago (2) Chicago 13(LP, Album) Columbia FC 36105 US 1979 Sell This Version
25AP 1602 Chicago (2) 13(LP, Album) CBS/Sony 25AP 1602 Hong Kong 1979 Sell This Version
FCA 36105 Chicago (2) Chicago 13(8-Trk, Album, Dol) Columbia FCA 36105 US 1979 Sell This Version
PCT 36105 Chicago (2) Chicago 13(Cass, Album) Columbia PCT 36105 US 1979 Sell This Version
FCT 36105 Chicago (2) Chicago 13(Cass, Album) CBS FCT 36105 Canada 1979 Sell This Version
40-86093 Chicago (2) Chicago 13(Cass, Album) CBS 40-86093 Spain 1979 Sell This Version
40-86093 Chicago (2) Chicago 13(Cass, Album) CBS 40-86093 UK & Europe 1979 Sell This Version
FCT 36105 Chicago (2) Chicago 13(Cass, Album) Columbia FCT 36105 US 1979 Sell This Version
PC 7338 Chicago (2) Chicago 13(Cass, Album) CBS PC 7338 New Zealand 1979 Sell This Version
FC 36105 Chicago (2) Chicago 13(LP) Columbia FC 36105 US 1979 Sell This Version
138154 Chicago (2) Chicago 13(LP, Album) CBS 138154 Brazil 1979 Sell This Version
25 AP 1602 Chicago (2) Chicago 13(LP, Album) CBS/Sony 25 AP 1602 South East Asia 1979 Sell This Version
86093 Chicago (2) Chicago 13(LP, Album) CBS 86093 Portugal 1979 Sell This Version
CBS 86093 Chicago (2) Chicago 13(LP, Album) CBS CBS 86093 Greece 1979 Sell This Version
CBS 86093, 86093 Chicago (2) Chicago 13(LP, Album) CBS, CBS CBS 86093, 86093 Europe 1979 Sell This Version
CBS 86093 Chicago (2) Chicago 13(LP, Album) CBS CBS 86093 Italy 1979 Sell This Version
SBP 237338 Chicago (2) Chicago 13(LP, Album) CBS SBP 237338 New Zealand 1979 Sell This Version
14-1284 Chicago (2) Chicago 13(LP, Album) CBS, Columbia 14-1284 Colombia 1979 Sell This Version
CS-10.334 Chicago (2) Chicago 13(LP, Album) CBS CS-10.334 Venezuela 1979 Sell This Version
CBS 36105 Chicago (2) Chicago 13(LP, Album) CBS CBS 36105 Turkey 1979 Sell This Version
25AP 1602 Chicago (2) Chicago 13(LP, Album) CBS/Sony 25AP 1602 Japan 1979 Sell This Version
SBP 237338 Chicago (2) Chicago 13(LP, Album) CBS SBP 237338 Australia 1979 Sell This Version
CBS 86093, 86093 Chicago (2) Chicago 13(LP, Album) CBS, CBS CBS 86093, 86093 Europe 1979 Sell This Version
FC 36105 Chicago (2) Chicago 13(LP, Album) Columbia FC 36105 US 1979 Sell This Version
CBS 86093 Chicago (2) Chicago 13(LP, Album) CBS CBS 86093 Italy 1979 Sell This Version
FC 36105 Chicago (2) Chicago 13(LP, Album) Columbia FC 36105 Canada 1979 Sell This Version
FC 36105 Chicago (2) Chicago 13(LP, Album, Pit) Columbia FC 36105 US 1979 Sell This Version
FC 36105 Chicago (2) Chicago 13(LP, Album, Promo) Columbia FC 36105 US 1979 Sell This Version
FC 36105 Chicago (2) Chicago 13(LP, Album, Ter) Columbia FC 36105 US 1979 Sell This Version
S 86093 Chicago (2) Chicago(LP, Album) CBS S 86093 Spain 1979 Sell This Version
CBS 86093, 86093, S CBS 86093, FC 36105 Chicago (2) Street Player(LP, Album) CBS, CBS, CBS, CBS CBS 86093, 86093, S CBS 86093, FC 36105 UK 1979 Sell This Version
CBS 40-86093 Chicago (2) Chicago 13(Cass, Album) Suzy CBS 40-86093 Yugoslavia 1980 Sell This Version
CBS 86093 Chicago (2) Chicago 13(LP, Album) Suzy, CBS CBS 86093 Yugoslavia 1981 Sell This Version
CSCS 6074 Chicago (2) Chicago 13(CD, Album, RE) CBS/Sony CSCS 6074 Japan 1991 Sell This Version
TECW-1915 Chicago (2) = シカゴ* Chicago (2) = シカゴ* - Chicago XIII = シカゴXIII(CD, Album, RE) Overseas Records TECW-1915 Japan 1995 Sell This Version
MUSH32046.2 Chicago (2) Chicago XIII(CD, Album, RE) Mushroom Records Pty. Ltd., Liberation Records, Chicago Records MUSH32046.2 Australia 1996 Sell This Version
R2 76182 Chicago (2) Chicago 13(CD, Album, Club, RE, RM) Rhino Records (2) R2 76182 Canada 2003 Sell This Version
R2 76182 Chicago (2) Chicago 13(CD, Album, RE, RM) Rhino Records (2) R2 76182 US 2003 Sell This Version
8122-76182-2 Chicago (2) Chicago 13(CD, Album, RM, RP) Rhino Records (2) 8122-76182-2 Europe 2003 Sell This Version
WPCR 13785 Chicago (2) Chicago 13(CD, Album, Ltd, RE, RM, SHM) Rhino Records (2) WPCR 13785 Japan 2010 Sell This Version
none Chicago (2) Chicago 13(10xFile, FLAC, Album, RE, 24b) R&B Company none 2013
2002632 Chicago (2) Chicago 13(CD, Album) CNR Music 2002632 Europe Unknown Sell This Version
CRD-3013 Chicago (2) Chicago 13(CD, Album) Chicago Records CRD-3013 US Unknown Sell This Version
CK 36105 Chicago (2) Chicago 13(CD, Album) Columbia CK 36105 US Unknown Sell This Version
CK 36105 Chicago (2) Chicago 13(CD, Album, RE) Columbia CK 36105 US Unknown Sell This Version
FRCD 0013, WPCR 13785 Chicago (2) Chicago 13(CD, Album, RE, RM, Unofficial, Min) 2000 FruitGum Corp., Rhino Records (4) FRCD 0013, WPCR 13785 Russia Unknown Sell This Version
CRD-3013 Chicago (2) Chicago 13(CD, Album, RE, RP) Chicago Records CRD-3013 US Unknown Sell This Version
R2 76182 Chicago (2) Chicago 13(CD, Album, RM, Unofficial) Rhino Records (4) R2 76182 Russia Unknown Sell This Version
PC 36105 Chicago (2) Chicago 13(LP, Album) Columbia PC 36105 US Unknown Sell This Version
5 888A Chicago (2) Street Player(Cass, Album, Unofficial, Dol) Not On Label 5 888A Unknown Sell This Version

Recommendations

Reviews Show All 4 Reviews

Add Review

vouvounix

vouvounix

October 14, 2018
referencing Chicago 13, 10xFile, FLAC, Album, RE, 24b, none

Great transfer !

--------------------------------------------------------------------------------
Analyzed: Chicago / Chicago 13
--------------------------------------------------------------------------------

DR Peak RMS Duration Track
--------------------------------------------------------------------------------
DR16 -0.05 dB -18.81 dB 9:13 01-Street Player
DR14 -1.36 dB -18.27 dB 4:15 02-Mama Take
DR14 -0.25 dB -17.24 dB 3:27 03-Must Have Been Crazy
DR13 -2.63 dB -19.19 dB 4:11 04-Window Dreamin'
DR15 -2.08 dB -19.97 dB 3:40 05-Paradise Alley
DR13 -0.10 dB -18.10 dB 4:12 06-Aloha Mama
DR14 -0.44 dB -17.26 dB 4:30 07-Reruns
DR13 -1.88 dB -17.51 dB 4:43 08-Loser With A Broken Heart
DR14 -0.97 dB -18.00 dB 4:37 09-Life Is What It Is
DR13 -0.60 dB -17.37 dB 4:19 10-Run Away
--------------------------------------------------------------------------------

Number of tracks: 10
Official DR value: DR14

Samplerate: 192000 Hz
Channels: 2
Bits per sample: 24
Bitrate: 5241 kbps
Codec: FLAC
================================================================================
wordsforthe8tracks

wordsforthe8tracks

January 24, 2018
edited about 1 year ago
referencing Chicago 13, LP, Album, FC 36105
8-track sequence:
1
- Street Player
- Must have been crazy
2
- Mama Take
- Window dreamin´
- Aloha Mama
3
- Reruns
- Loser with a broken
Heart
- Must have been crazy (repeated)
4
- Paradise Alley
- Life is what it is
- Run away
pilotfish693

pilotfish693

December 18, 2017
referencing Chicago 13, LP, Album, FC 36105
Street Player (dance mix) on 2002/2010 cd (and 2015 cd box set) is taken from (worn) vinyl source,not master tape, as distortion can be heard on vocals and cymbals
Masterdavid

Masterdavid

June 13, 2015
referencing Chicago 13, LP, Album, FC 36105
All Rare Groove isn't rare this album is killer boogie!