Christopher Cross ‎– Take Me As I Am

Label:
Christopher Cross Records ‎– CCR500115
Format:
CD, Album, Cardboard Sleeve
Country:
Released:
Genre:
Style:

Tracklist

1 Haila 3:47
2 Take Me As I Am 3:51
3 Roberta (For Joni Mitchell) 4:32
4 Down To The Wire 3:33
5 Baby It's All You 4:49
6 Old Days 4:04
7 River Of Tears 4:08
8 Truth 3:42
9 Like Minded Saviors 3:52
10 Alvah (In Memory Of Rob Meurer) 4:04

Companies, etc.

Credits

Notes

Christopher Cross 2017 album. Released in carboard sleeve format. Manufactured in the USA

Barcode and Other Identifiers

  • Barcode (Scanned): 854955001151
  • Barcode (Print): 8 54955 00115 1
  • Matrix / Runout: 5775-TAKEME

Recommendations

Reviews Show All 5 Reviews

Add Review

antoine.guilloux

antoine.guilloux

July 25, 2018
Great compositions, smooth musicianship and very nice sound and space
And yes I agree : especially good guitar parts and solos by CC himself
davidbarron57050

davidbarron57050

May 25, 2018
Christopher Cross has to be one of the most underestimated singer / songwriters of all time.
Every single album this man has ever released is musically brilliant.
This latest Christopher Cross album - ' TAKE ME AS I AM ' is just superb.
If you appreciate great music then introduce yourself to his music.
It will be one of the best things you ever did !
Christopher Cross - a truly great musician.
5*****
ispace

ispace

February 20, 2018
edited over 2 years ago
Fantastic album but disappointing mastering on this album, with little dynamic range....

foobar2000 1.3.17 / Dynamic Range Meter 1.1.1
log date: 2018-02-20 20:49:14

--------------------------------------------------------------------------------
Analyzed: Christopher Cross / Take Me As I Am
--------------------------------------------------------------------------------

DR Peak RMS Duration Track
--------------------------------------------------------------------------------
DR8 -0.10 dB -8.97 dB 3:47 01-Haila
DR7 -0.10 dB -8.13 dB 3:51 02-Take Me As I Am
DR7 -0.10 dB -8.48 dB 4:32 03-Roberta (For Joni Mitchell)
DR6 -0.10 dB -7.42 dB 3:33 04-Down To The Wire
DR9 -0.10 dB -10.15 dB 4:49 05-Baby It's All You
DR8 -0.10 dB -9.82 dB 4:04 06-Old Days
DR7 -0.10 dB -8.44 dB 4:08 07-River Of Tears
DR7 -0.10 dB -9.46 dB 3:42 08-Truth
DR6 -0.10 dB -8.01 dB 3:52 09-Like Minded Saviors
DR8 -0.10 dB -10.75 dB 4:04 10-Alvah (In Memory Of Rob Meurer)
--------------------------------------------------------------------------------

Number of tracks: 10
Official DR value: DR7

Samplerate: 44100 Hz
Channels: 2
Bits per sample: 16
Bitrate: 899 kbps
Codec: ALAC
================================================================================

Reference: https://en.wikipedia.org/wiki/Loudness_war
chiszigzag

chiszigzag

January 20, 2018
Wonderful Guitar playing....back on true form for sure.....a total Classic!!
harrisar1971

harrisar1971

January 13, 2018

Amazing album take me back to the old good years!!!Christopher Cross still got it!!!