Christopher Cross ‎– Window

Genre:
Style:
Year:

Versions (4)

Cat# Artist Title (Format) Label Cat# Country Year
74321 24654 2 Christopher Cross Window(CD, Album) BMG Ariola München GmbH 74321 24654 2 Germany 1994 Sell This Version
P2 53960 Christopher Cross Window(CD, Album) Rhythm Safari P2 53960 US 1994 Sell This Version
PSCW-5050 Christopher Cross Window(CD, Album) Ariola PSCW-5050 Japan 1994 Sell This Version
P4 53960 Christopher Cross Window(Cass, Album) Rhythm Safari P4 53960 US 1994 Sell This Version

Recommendations

Reviews

Add Review

ispace

ispace

March 23, 2018
referencing Window, CD, Album, PSCW-5050
foobar2000 1.3.17 / Dynamic Range Meter 1.1.1
log date: 2018-03-24 13:12:23

--------------------------------------------------------------------------------
Analyzed: Christopher Cross / Window [JP]
--------------------------------------------------------------------------------

DR Peak RMS Duration Track
--------------------------------------------------------------------------------
DR12 0.00 dB -13.92 dB 4:37 01-Been There Done That
DR11 0.00 dB -14.71 dB 3:36 02-Wild Wild West
DR12 0.00 dB -14.14 dB 5:56 03-Wishing Well
DR11 0.00 dB -13.35 dB 5:17 04-Thinkin Bout You
DR12 -1.92 dB -17.00 dB 3:15 05-Jan's Tune
DR11 -0.26 dB -14.07 dB 4:10 06-Open Up My Window
DR10 -0.06 dB -11.74 dB 3:15 07-Nature's Way
DR11 -0.25 dB -13.75 dB 4:41 08-Uncharted Hearts
DR12 -0.46 dB -14.34 dB 4:38 09-Before I Go
DR11 -0.79 dB -15.45 dB 6:46 10-Love Is Calling
--------------------------------------------------------------------------------

Number of tracks: 10
Official DR value: DR11

Samplerate: 44100 Hz
Channels: 2
Bits per sample: 16
Bitrate: 826 kbps
Codec: ALAC
================================================================================