Cradle Of Filth ‎– Cruelty and the Beast (Re-Mistressed)

Label:
Music For Nations ‎– 190758808819
Format:
2 × Vinyl, LP, Album, Reissue, Remastered, Red Translucent
Country:
Released:
Genre:
Style:

Tracklist

A1 Once Upon Atrocity
A2 Thirteen Autumns And A Widow
A3 Cruelty Brought Thee Orchids
B1 Beneath The Howling Stars
B2 Venus In Fear
B3 Desire In Violent Overture
C1 The Twisted Nails Of Faith
C2 Bathory Aria
D1 Portrait Of The Dead Countess
D2 Lustmord And Wargasm
D3 Hallowed Be Thy Name

Notes

Red translucent double vinyl housed in a gatefold sleeve including printed innersleeves.

Barcode and Other Identifiers

  • Barcode: 1 90758 80881 9
  • Label Code: LC13959

Recommendations

Reviews Show All 4 Reviews

Add Review

MrMel

MrMel

December 3, 2019

This pressing sounds so amazing i like it even better than the original cd version from 1998 I also got the Transparent Red vinyl version. The drums sound much better in this version, also there are some parts that were previously buried in the old mix that come through here. Fans of Cruelty & The Beast... get you a copy while you can!!
Vanklaus

Vanklaus

November 24, 2019

Awesome LP, the mastering / sound is top. Got the red double LP
julienktl

julienktl

November 21, 2019
I have preordered this version on the official site with a lithography signed by Dani Filth.
Glennus

Glennus

November 5, 2019
My copy sounds flawless.

DR10 -6.19 dB -21.30 dB 1:42 01-Once Upon Atrocity
DR12 0.00 dB -12.89 dB 7:13 02-Thirtheen Autumns And A Widow
DR12 -0.03 dB -12.98 dB 7:18 03-Cruelty Brought Thee Orchids
DR12 0.00 dB -13.07 dB 7:38 04-Beneath The Howling Stars
DR10 -3.38 dB -17.20 dB 2:18 05-Venus In Fear
DR12 -0.05 dB -12.84 dB 4:15 06-Desire In Violent Overture
DR12 -0.09 dB -14.30 dB 6:50 07-The Twisted Nails Of Faith
DR12 -0.03 dB -14.34 dB 10:59 08-Bathory Aria
DR11 -2.88 dB -18.04 dB 2:40 09-Portrait Of The Dead Countess
DR12 0.00 dB -12.90 dB 7:28 10-Lustmord And Wargasm (The Lick Of Carnivorous Wounds)
DR12 -0.09 dB -14.05 dB 7:09 11-Hallowed Be Thy Name (Iron Maiden Cover)