DDT* ‎– Прозрачный

Label:
Navigator Records ‎– NR 1414 CDp/DL, Navigator Records ‎– NR 1414 CDp
Format:
CD, Album, Deluxe Edition, 1st press
Country:
Released:
Genre:
Style:

Companies, etc.

Credits

Notes

Packaged in a 16 x 16 cm clear blue slide-box.
First press.

Barcode and Other Identifiers

  • Barcode: 4690251019775
  • Barcode (Text): 4 690251 019775
  • Matrix / Runout: [Navigator Records logo] ДДТ ‒ ПРОЗРАЧНЫЙ NR 1414 CDp
  • Mastering SID Code: IFPI L641
  • Mould SID Code: IFPI 1I04
  • Matrix / Runout (Mould text): UEP-CD Лицензия МПТР России ВАФ № 77-15

Other Versions (5 of 5) View All

Cat# Artist Title (Format) Label Cat# Country Year
none DDT* Прозрачный(14xFile, MP3, Album, 320) Not On Label (ДДТ Self-released) none Russia 2014
NR 1414 CDp DDT* Прозрачный(CD, Album) Navigator Records NR 1414 CDp Ukraine 2014 Sell This Version
IC011 - 1000 TR 2LP DDT* Прозрачный(2xLP, Album, Ltd, RE) Imagine Club IC011 - 1000 TR 2LP Russia 2017 Sell This Version
NR 1414 CDp/DL, NR 1414 CDp DDT* Прозрачный(CD, Album, Dlx, 2nd) Navigator Records, Navigator Records NR 1414 CDp/DL, NR 1414 CDp Russia 2014 Sell This Version
none DDT* Прозрачный(CD, Album, Dlx) Астра none Ukraine 2014 Sell This Version

Recommendations

Reviews

Add Review

TonnyB

TonnyB

May 19, 2016

foobar2000 1.3.10 / Dynamic Range Meter 1.1.1
log date: 2016-05-19 15:05:20

--------------------------------------------------------------------------------
Analyzed: DDT / Прозрачный
--------------------------------------------------------------------------------

DR Peak RMS Duration Track
--------------------------------------------------------------------------------
DR8 -0.20 dB -11.30 dB 4:29 01-В очереди за правдой
DR6 -0.20 dB -7.12 dB 4:19 02-Туман
DR6 -0.20 dB -7.67 dB 4:02 03-Танцует солнце
DR6 -0.20 dB -8.50 dB 4:34 04-Реальность
DR5 -0.20 dB -8.47 dB 4:37 05-Звезда
DR5 -0.90 dB -9.01 dB 4:07 06-Помнишь
DR6 -0.20 dB -6.91 dB 3:59 07-Музыкант
DR6 -0.20 dB -7.29 dB 3:08 08-Добро в ...
DR8 -0.20 dB -10.64 dB 4:17 09-Этот город
DR5 -0.20 dB -5.88 dB 4:35 10-Времена
DR7 -0.20 dB -9.57 dB 5:34 11-Гимн
DR6 -0.20 dB -7.37 dB 4:11 12-Жизнь красивая
DR6 -0.20 dB -6.95 dB 3:41 13-Погром
DR6 -0.20 dB -9.23 dB 4:42 14-Конёк-Горбунок
--------------------------------------------------------------------------------

Number of tracks: 14
Official DR value: DR6

Samplerate: 44100 Hz
Channels: 2
Bits per sample: 16
Bitrate: 926 kbps
Codec: FLAC
================================================================================