David Pack ‎– The Secret Of Movin' On

Label:
Peak Records (5) ‎– PKD-8519-2
Format:
CD, Album
Country:
Released:
Genre:
Style:

Companies, etc.

Credits

Barcode and Other Identifiers

  • Barcode (Text): 0 13431-85192 9

Recommendations

Reviews Show All 2 Reviews

Add Review

ispace

ispace

May 28, 2018
foobar2000 1.3.17 / Dynamic Range Meter 1.1.1
log date: 2018-05-28 20:06:29

--------------------------------------------------------------------------------
Analyzed: David Pack / The Secret Of Movin' On
--------------------------------------------------------------------------------

DR Peak RMS Duration Track
--------------------------------------------------------------------------------
DR7 -0.28 dB -9.26 dB 5:18 01-The Secret Of Movin' On (Travelin' Light) (with Ann Wilson)
DR7 -0.28 dB -9.54 dB 5:18 02-Vertical Disbelief (That's Not Me)
DR7 -0.28 dB -8.55 dB 4:42 03-Biggest Part Of Me
DR9 -0.28 dB -10.92 dB 3:12 04-Tell Her Goodbye (with Dewey Bunnell)
DR7 -0.28 dB -9.32 dB 4:55 05-A Brand New Start (with Steve Perry)
DR7 -0.28 dB -9.03 dB 5:06 06-You're The Only Woman
DR8 -0.28 dB -10.26 dB 3:24 07-When Your Love Was Almost Mine
DR8 -0.28 dB -9.58 dB 4:44 08-Where We Started From (with Timothy B. Schmidt)
DR8 -0.28 dB -10.26 dB 4:41 09-Everlasting
DR8 -0.28 dB -9.68 dB 5:17 10-Think Of U (Song 4 Kaitlyn) (with David Benoit)
DR9 -0.28 dB -10.79 dB 3:17 11-Elizabeth
--------------------------------------------------------------------------------

Number of tracks: 11
Official DR value: DR8

Samplerate: 44100 Hz
Channels: 2
Bits per sample: 16
Bitrate: 880 kbps
Codec: ALAC
================================================================================
bengtisak

bengtisak

March 25, 2016

The CD was released in August 9 on Concord/Peak Records, and i'm so glad that I buy this record. David Pack is one of the best WestCoast singer ever and it was about time this record came up. I really like the title track "The Secret Of Movin' On", but there's lots of great tracks. Steve Perry, ex Journey does a great performance at track 5 "A brand new start"

9/10