DeGarmo & Key ‎– The Pledge

Genre:
Style:
Year:

Versions (4)

Cat# Artist Title (Format) Label Cat# Country Year
PWD01096 DeGarmo & Key The Pledge(CD, Album) Power Discs PWD01096 US 1989 Sell This Version
MYR CD 1263 DeGarmo & Key The Pledge(CD, Album) Myrrh MYR CD 1263 US 1989 Sell This Version
PWC01096 DeGarmo & Key The Pledge(Cass, Album) Power Discs PWC01096 US 1989 Sell This Version
MYRR 1263 DeGarmo & Key The Pledge(LP, Album) Myrrh MYRR 1263 UK 1989 Sell This Version

Recommendations

Reviews

Add Review

ispace

ispace

April 27, 2018
referencing The Pledge, CD, Album, PWD01096
foobar2000 1.3.17 / Dynamic Range Meter 1.1.1
log date: 2018-04-28 16:18:33

--------------------------------------------------------------------------------
Analyzed: Degarmo & Key / The Pledge
--------------------------------------------------------------------------------

DR Peak RMS Duration Track
--------------------------------------------------------------------------------
DR14 -0.01 dB -16.64 dB 3:22 01-Boycott Hell
DR14 0.00 dB -15.62 dB 3:07 02-Aliens & Strangers (The Pledge Album Version)
DR14 -0.04 dB -17.54 dB 3:56 03-I'm Accepted
DR14 0.00 dB -15.64 dB 4:37 04-Hand In Hand
DR15 0.00 dB -18.63 dB 5:16 05-The Pledge (The Pledge Album Version)
DR15 0.00 dB -16.57 dB 2:33 06-Life In The New Age (The Pledge Album Version)
DR14 0.00 dB -15.97 dB 4:32 07-Let's Get Upset
DR14 -0.85 dB -17.53 dB 3:21 08-Who Will (The Pledge Album Version)
DR14 0.00 dB -15.47 dB 4:31 09-Right On Track (The Pledge Album Version)
DR13 -0.33 dB -15.82 dB 3:29 10-If God Is For Us (Who Can Be Against Us)
--------------------------------------------------------------------------------

Number of tracks: 10
Official DR value: DR14

Samplerate: 44100 Hz
Channels: 2
Bits per sample: 16
Bitrate: 990 kbps
Codec: ALAC
================================================================================