Diana Ross ‎– Ross

Genre:
Style:
Year:

Versions (41)

Cat# Artist Title (Format) Label Cat# Country Year
AFL1-4677 Diana Ross Ross(LP, Album) RCA AFL1-4677 US 1983 Sell This Version
IMD 8770 Diana Ross Diana Ross(Cass, Album, Unofficial) IMD (2) IMD 8770 Saudi Arabia 1983 Sell This Version
CP35-3068 Diana Ross = ダイアナ・ロス* Diana Ross = ダイアナ・ロス* - Ross = ロス(CD, Album) Capitol Records CP35-3068 Japan 1983 Sell This Version
PCD14677 Diana Ross Ross(CD, Album) RCA PCD14677 US 1983 Sell This Version
AFK1-4677 Diana Ross Ross(Cass) RCA AFK1-4677 Canada 1983 Sell This Version
AFK1-4677 Diana Ross Ross(Cass, Album) RCA AFK1-4677 US 1983 Sell This Version
TC-EST 1867054, 1C 264 1867054 Diana Ross Ross(Cass, Album) Capitol Records, Capitol Records TC-EST 1867054, 1C 264 1867054 UK 1983 Sell This Version
1867054 Diana Ross Ross(Cass, Album) Capitol Records 1867054 Greece 1983 Sell This Version
1C 264 1867054 Diana Ross Ross(Cass, Album) Capitol Records, EMI 1C 264 1867054 Europe 1983 Sell This Version
ST-50.049 Diana Ross Ross(LP, Album) Capitol Records ST-50.049 Venezuela 1983 Sell This Version
ST 27872 Diana Ross Ross(LP, Album) Capitol Records ST 27872 Israel 1983 Sell This Version
1867051 Diana Ross Ross(LP, Album) EMI 1867051 Turkey 1983 Sell This Version
1867051 Diana Ross Ross(LP, Album) Capitol Records 1867051 Greece 1983 Sell This Version
64 1867051 Diana Ross Ross(LP, Album) Capitol Records 64 1867051 Italy 1983 Sell This Version
31C 064 86705 Diana Ross Ross(LP, Album) Capitol Records 31C 064 86705 Brazil 1983 Sell This Version
1867051 Diana Ross Ross(LP, Album) Pathé Marconi EMI 1867051 France 1983 Sell This Version
ECS-81610 Diana Ross Ross(LP, Album) Capitol Records ECS-81610 Japan 1983 Sell This Version
SLEM-1143 Diana Ross Ross(LP, Album) Capitol Records SLEM-1143 Mexico 1983 Sell This Version
1C 064 1867051 Diana Ross Ross(LP, Album) Capitol Records, EMI 1C 064 1867051 Europe 1983 Sell This Version
ST (D) 27872 Diana Ross Ross(LP, Album) Capitol Records ST (D) 27872 South Africa 1983 Sell This Version
11C 080-86705 Diana Ross Ross(LP, Album) Vecemi, Música E Discos, Lda. 11C 080-86705 Portugal 1983 Sell This Version
8175 Diana Ross Ross(LP, Album) EMI 8175 Argentina 1983 Sell This Version
AFL1-4677, SLEM-1143 Diana Ross Ross(LP, Album) RCA, EMI Capitol De Mexico, S.A. De C.V. AFL1-4677, SLEM-1143 Mexico 1983 Sell This Version
AFL1-4677 Diana Ross Ross(LP, Album) RCA AFL1-4677 Canada 1983 Sell This Version
ST-27872 Diana Ross Ross(LP, Album) Capitol Records, Inc. ST-27872 Singapore, Malaysia & Hong Kong 1983 Sell This Version
ST 27872 Diana Ross Ross(LP, Album) Capitol Records ST 27872 New Zealand 1983 Sell This Version
068 1867051, ST-27872 Diana Ross Ross(LP, Album) EMI, Capitol Records 068 1867051, ST-27872 Spain 1983 Sell This Version
ST-27872 Diana Ross Ross(LP, Album) Capitol Records ST-27872 Australia 1983 Sell This Version
1C 064 1867051 Diana Ross Ross(LP, Album, DMM) Capitol Records, EMI 1C 064 1867051 Europe 1983 Sell This Version
EST 1867051 Diana Ross Ross(LP, Album, Emb) EMI EST 1867051 UK 1983 Sell This Version
186705 Diana Ross Ross(LP, Album, Promo, TP, W/Lbl) Not On Label 186705 France 1983 Sell This Version
1C 038-15 7653 1, 038-15 7653 1, 15 7653 1 Diana Ross Ross(LP, Album, RE) Capitol Records, Capitol Records, Capitol Records 1C 038-15 7653 1, 038-15 7653 1, 15 7653 1 Germany 1983 Sell This Version
1C 064 1867051 Diana Ross Ross(LP, Album, TP) Capitol Records 1C 064 1867051 Germany 1983 Sell This Version
LSCAP 11051, EST 1867051 Diana Ross Ross(LP) Jugoton, Capitol Records LSCAP 11051, EST 1867051 Yugoslavia 1984 Sell This Version
TOCP-6345 Diana Ross Ross(CD, Album, RE) EMI TOCP-6345 Japan 1990 Sell This Version
TOCP-53433, TOCP-6345 Diana Ross = ダイアナ・ロス* Diana Ross = ダイアナ・ロス* - Ross = ロス(CD, Album, RE) EMI, EMI TOCP-53433, TOCP-6345 Japan 2005 Sell This Version
FTG-385, 88875009592 Diana Ross Ross(CD, Album, RE, RM, Exp) Funkytowngrooves, RCA, Sony Music Commercial Music Group FTG-385, 88875009592 US 2014 Sell This Version
FTG-385, 88875009592 Diana Ross Ross(CD, Album, RE, RM, Exp) Funkytowngrooves, Sony Music Commercial Music Group, RCA FTG-385, 88875009592 US 2014 Sell This Version
FTG-385, 88875009592 Diana Ross Ross(CD, Album, RE, RM, Exp) Funkytowngrooves, RCA, Sony Music Commercial Music Group FTG-385, 88875009592 US 2014 Sell This Version
CDSOL-8201 Diana Ross Ross(CD, Album, RE, RM, Exp) Solid Records (6) CDSOL-8201 Japan 2014 Sell This Version
FTG-385, 88875009592 Diana Ross Ross(CDr, Album, RE, RM, RP, Unofficial, Exp) Funkytowngrooves, RCA, Sony Music Commercial Music Group FTG-385, 88875009592 US Unknown Sell This Version

Recommendations

Reviews

Add Review

ispace

ispace

February 26, 2019
referencing Ross, CD, Album, RE, RM, Exp, FTG-385, 88875009592
foobar2000 1.3.17 / Dynamic Range Meter 1.1.1
log date: 2019-02-26 19:03:33

--------------------------------------------------------------------------------
Analyzed: Diana Ross / Ross (Expanded Edition)
--------------------------------------------------------------------------------

DR Peak RMS Duration Track
--------------------------------------------------------------------------------
DR9 -0.27 dB -12.02 dB 4:14 01-That's How You Start Over
DR10 -0.24 dB -12.14 dB 4:49 02-Love Will Make It Right
DR11 -0.27 dB -13.72 dB 4:35 03-You Do It
DR11 0.00 dB -13.30 dB 5:00 04-Pieces of Ice
DR10 -0.14 dB -12.76 dB 4:08 05-Let's Go Up
DR11 -0.29 dB -13.25 dB 4:21 06-Love or Loneliness
DR10 -0.28 dB -11.91 dB 4:02 07-Up Front
DR11 -0.25 dB -12.54 dB 4:06 08-Girls
DR12 -0.15 dB -14.98 dB 4:10 09-Pieces of Ice (7" Mix)
DR10 0.00 dB -12.37 dB 7:19 10-Pieces of Ice (12" Mix)
DR11 0.00 dB -13.27 dB 7:18 11-Pieces of Ice (12" Instrumental)
DR10 -0.26 dB -12.08 dB 3:43 12-Up Front (7" Radio Mix)
DR10 -0.28 dB -12.09 dB 7:02 13-Up Front (Special Club Mix)
DR8 -0.30 dB -10.59 dB 5:47 14-Up Front (12" Mix)
DR9 -0.27 dB -10.91 dB 5:46 15-Up Front (Tony Swain and Steve Jolley European 12" Remix)
DR10 -0.17 dB -12.63 dB 3:14 16-Let's Go Up (7" Mix)
--------------------------------------------------------------------------------

Number of tracks: 16
Official DR value: DR10

Samplerate: 44100 Hz
Channels: 2
Bits per sample: 16
Bitrate: 954 kbps
Codec: ALAC
================================================================================