Dionne Warwick ‎– How Many Times Can We Say Goodbye

Label:
Funkytowngrooves ‎– FTG-391, Arista ‎– 88843078542, Sony Music Commercial Music Group ‎– 88843078542
Series:
Format:
CD, Album, Reissue, Remastered, Expanded Edition
Country:
Released:
Genre:
Style:

Tracklist Hide Credits

1 Got A Date
Written-By – Luther Vandross, Marcus Miller
5:14
2 So Amazing
Written-By – Luther Vandross
3:42
3 I Do It Cause I Like It
Written-By – Luther Vandross, Marcus Miller
4:55
4 How Many Times Can We Say Goodbye
Featuring [Duet] – Luther VandrossWritten-By – Steve Goldman (2)
3:28
5 What Can A Miracle Do
Written-By – Don Grolnick, Luther Vandross
4:39
6 Two Ships Passing In The Night
Written-By – Dionne Warwick
5:11
7 I Can Let Go Now
Written-By – Michael McDonald
2:53
8 Will You Still Love Me Tomorrow
Written-By – Carol King / Gerry Goffin*
5:26
Bonus Tracks
9 Got A Date (7" Version)
Written-By – Luther Vandross, Marcus Miller
4:07
10 Got A Date (Special Remix)
Written-By – Luther Vandross, Marcus Miller
7:04
11 Got A Date (Instrumental)
Written-By – Luther Vandross, Marcus Miller
5:18
12 Got A Date (Single Version)
Written-By – Luther Vandross, Marcus Miller
3:28
13 Two Ships Passing In The Night (Instrumental)
Written-By – Dionne Warwick
5:00
14 How Many Times Can We Say Goodbye (Instrumental)
Written-By – Steve Goldman (2)
3:28

Companies, etc.

Credits

Notes

Originally released on Arista, 1983.

Release credits Denilson Miller as being a co-writer on all versions of 'Got A Date'. Marcus Miller has been credited above as per original LP credits.

Studios: Media Sound Studios (N.Y.), Record Plant (L.A.)

Barcode and Other Identifiers

  • Barcode (Text): 8 10736 02130 5
  • Barcode (String): 810736021305
  • Matrix / Runout: DBV 6712
  • Mastering SID Code: IFPI LT23
  • Mould SID Code: IFPI AAHY2

Other Versions (5 of 31) View All

Cat# Artist Title (Format) Label Cat# Country Year
AL 8-8104, AL8-8104 Dionne Warwick How Many Times Can We Say Goodbye(LP, Album, Ele) Arista, Arista AL 8-8104, AL8-8104 US 1983 Sell This Version
AC8-8104 Dionne Warwick How Many Times Can We Say Goodbye(Cass, Album) Arista AC8-8104 US 1983 Sell This Version
SICP 5498 Dionne Warwick How Many Times Can We Say Goodbye(CD, Album, Ltd, RE, RM) Arista SICP 5498 Japan 2017 Sell This Version
AL 8-8104 Dionne Warwick How Many Times Can We Say Goodbye(LP, Album) Arista AL 8-8104 Canada 1983 Sell This Version
40-90073 Dionne Warwick How Many Times Can We Say Goodbye(Cass, Album) Arista 40-90073 Scandinavia 1983 Sell This Version

Recommendations

Reviews

Add Review

ispace

ispace

May 31, 2019
foobar2000 1.4.4 / Dynamic Range Meter 1.1.1
log date: 2019-06-01 16:57:14

--------------------------------------------------------------------------------
Analyzed: Dionne Warwick How Many Times Can We Say Goodbye [US 2014 Expanded Edition CD]
--------------------------------------------------------------------------------

DR Peak RMS Duration Track
--------------------------------------------------------------------------------
DR11 0.00 dB -12.87 dB 5:21 01-Got A Date
DR12 -0.22 dB -16.09 dB 3:47 02-So Amazing
DR12 -0.14 dB -14.10 dB 5:01 03-I Do It Cause I Like
DR11 -0.19 dB -15.08 dB 3:30 04-How Many Times Can We Say Goodbye
DR12 -0.09 dB -14.74 dB 4:47 05-What Can A Miracle Do
DR12 -0.07 dB -15.67 dB 5:20 06-Two Ships Passing In The Night
DR13 -0.21 dB -18.91 dB 2:58 07-I Can Let Go Now
DR12 -0.16 dB -17.14 dB 5:30 08-Will You Still Love Me Tomorrow
DR9 -0.04 dB -11.68 dB 4:10 09-Got A Date (7" Version)
DR11 -0.06 dB -12.69 dB 6:59 10-Got A Date (Special Remix)
DR9 0.00 dB -11.52 dB 4:56 11-Got A Date (Instrumental)
DR8 0.00 dB -10.55 dB 3:30 12-Got A Date (Uk Single Version)
DR14 -0.09 dB -16.87 dB 5:02 13-Two Ships Passing In The Night (Instrumental)
DR10 -0.09 dB -13.98 dB 3:29 14-How Many Times Can We Say Goodbye (Instrumental)
--------------------------------------------------------------------------------

Number of tracks: 14
Official DR value: DR11

Samplerate: 44100 Hz
Channels: 2
Bits per sample: 16
Bitrate: 823 kbps
Codec: ALAC
================================================================================