Dragon (5) ‎– Dreams Of Ordinary Men

Genre:
Style:
Year:

Versions (4)

Cat# Artist Title (Format) Label Cat# Country Year
829 828-1 Dragon (5) Dreams Of Ordinary Men(LP, Album) Polydor 829 828-1 Australasia 1986 Sell This Version
829 828-2 Dragon (5) Dreams Of Ordinary Men(CD, Album) Polydor 829 828-2 Australasia 1986 Sell This Version
829 828-4 Dragon (5) Dreams Of Ordinary Men(Cass) Polydor 829 828-4 Australasia 1986 Sell This Version
829 828-4 Dragon (5) Dreams Of Ordinary Men(Cass) Polydor 829 828-4 Australasia 1986 Sell This Version

Recommendations

Reviews Show All 2 Reviews

Add Review

ispace

ispace

April 29, 2018
referencing Dreams Of Ordinary Men, CD, Album, 829 828-2
foobar2000 1.3.17 / Dynamic Range Meter 1.1.1
log date: 2018-04-29 20:00:06

--------------------------------------------------------------------------------
Analyzed: Dragon / Dreams Of Ordinary Men [AU 1986 CD]
--------------------------------------------------------------------------------

DR Peak RMS Duration Track
--------------------------------------------------------------------------------
DR13 -1.80 dB -17.59 dB 4:02 01-Dreams Of Ordinary Men
DR12 -3.29 dB -17.31 dB 4:01 02-Speak No Evil
DR13 -3.34 dB -18.38 dB 4:22 03-Nothing To Lose
DR12 -3.41 dB -17.67 dB 4:09 04-Western Girls
DR12 -4.21 dB -18.90 dB 4:21 05-Intensive Care
DR13 -2.41 dB -17.41 dB 4:11 06-Temptation
DR12 -3.84 dB -18.02 dB 4:16 07-Midnight Sun
DR13 -5.18 dB -19.69 dB 3:43 08-Love Don't Stop
DR14 -3.99 dB -20.00 dB 3:27 09-Forever And Ever
DR12 -5.04 dB -19.51 dB 4:42 10-Smoke
DR15 -2.40 dB -19.71 dB 4:34 11-Start It Up
DR14 -2.40 dB -18.64 dB 3:28 12-When I'm Gone
--------------------------------------------------------------------------------

Number of tracks: 12
Official DR value: DR13

Samplerate: 44100 Hz
Channels: 2
Bits per sample: 16
Bitrate: 889 kbps
Codec: ALAC
================================================================================
hannes2211

hannes2211

January 29, 2015
referencing Dreams Of Ordinary Men, LP, Album, 829 828-1
Germany Release # 831 760-1 Y