Dwayne Ford ‎– Needless Freaking

Label:
Epic ‎– SICP 4849
Series:
Format:
CD, Album, Limited Edition, Reissue
Country:
Released:
Genre:
Style:

Tracklist

1 Lovin' And Losin' You
2 Am I Ever Gonna Find Your Love
3 Stranger In Paradise
4 The Hurricane
5 Midnight Ride
6 There's A Life In Me
7 The American Blues
8 The Best Will Survive

Companies, etc.

Credits

Barcode and Other Identifiers

  • Rights Society: JASRAC
  • Barcode: 4547366263985

Other Versions (5 of 8) View All

Cat# Artist Title (Format) Label Cat# Country Year
EPC 85897, 85897 Dwayne Ford Needless Freaking(LP, Album) Epic, Epic EPC 85897, 85897 Netherlands 1981 Sell This Version
EICP 7052 Dwayne Ford Needless Freaking(CD, Wit) Epic Records International EICP 7052 Japan 2002 Sell This Version
25-3P-362 Dwayne Ford Needless Freaking(LP, Album) Epic 25-3P-362 Japan 1981 Sell This Version
NPEC-90668 Dwayne Ford Needless Freaking(LP, Album, RE) Epic NPEC-90668 Canada 1982 Sell This Version
NPECT 90668 Dwayne Ford Needless Freaking(Cass, Album) Epic NPECT 90668 Canada 1981 Sell This Version

Reviews

Add Review

ispace

ispace

April 13, 2018
foobar2000 1.3.17 / Dynamic Range Meter 1.1.1
log date: 2018-04-13 21:19:32

--------------------------------------------------------------------------------
Analyzed: Dwayne Ford / Needless Freaking [JP 2016 CD]
--------------------------------------------------------------------------------

DR Peak RMS Duration Track
--------------------------------------------------------------------------------
DR10 0.00 dB -11.75 dB 3:30 01-Lovin' And Losin' You
DR8 0.00 dB -11.10 dB 3:38 02-Am I Ever Gonna Find Your Love
DR10 0.00 dB -11.64 dB 3:34 03-Stranger In Paradise
DR8 0.00 dB -9.32 dB 3:51 04-The Hurricane
DR8 0.00 dB -9.89 dB 4:19 05-Midnight Ride
DR11 0.00 dB -14.30 dB 4:40 06-There's A Life In Me
DR10 0.00 dB -13.32 dB 5:30 07-The American Blues
DR10 0.00 dB -12.06 dB 4:04 08-The Best Will Survive
--------------------------------------------------------------------------------

Number of tracks: 8
Official DR value: DR9

Samplerate: 44100 Hz
Channels: 2
Bits per sample: 16
Bitrate: 942 kbps
Codec: ALAC
================================================================================