England Dan & John Ford Coley ‎– Nights Are Forever

Genre:
Style:
Year:

Tracklist

I'd Really Love To See You Tonight 2:35
I'll Stay 3:20
Westward Wind 3:17
Long Way Home 3:18
There'll Never Be Another For Me 2:50
Nights Are Forever Without You 2:47
It's Not The Same 2:38
Showboat Gambler 2:37
The Prisoner 3:25
Lady 3:58
Everything's Gonna Be Alright 3:08

Versions (27)

Cat# Artist Title (Format) Label Cat# Country Year
BT 89517 England Dan & John Ford Coley Nights Are Forever(LP, Album, PR) Big Tree Records BT 89517 US 1976 Sell This Version
TP 89517 England Dan & John Ford Coley Nights Are Forever(8-Trk, Album) Big Tree Records TP 89517 US 1976 Sell This Version
TP 89517, S 113277 England Dan & John Ford Coley Nights Are Forever(8-Trk, Album, Club) Big Tree Records, RCA Music Service TP 89517, S 113277 US 1976 Sell This Version
CBT-89517 England Dan & John Ford Coley Nights Are Forever(Cass, Album) Big Tree Records CBT-89517 Canada 1976 Sell This Version
CS 89517 England Dan & John Ford Coley Nights Are Forever(Cass, Album, Dol) Big Tree Records CS 89517 US 1976 Sell This Version
P-10236A England Dan & John Ford Coley Nights Are Forever(LP, Album) Big Tree Records P-10236A Japan 1976 Sell This Version
ATL 50297 (BT 89517) England Dan & John Ford Coley Nights Are Forever(LP, Album) Big Tree Records ATL 50297 (BT 89517) Netherlands 1976 Sell This Version
K50297 England Dan & John Ford Coley Nights Are Forever(LP, Album) Atlantic K50297 France 1976 Sell This Version
W 50297 England Dan & John Ford Coley Nights Are Forever(LP, Album) Big Tree Records W 50297 Italy 1976 Sell This Version
A 01032, 01032 England Dan & John Ford Coley Nights Are Forever(LP, Album) Atlantic, Atlantic A 01032, 01032 Greece 1976 Sell This Version
BT 89517 England Dan & John Ford Coley Nights Are Forever(LP, Album) Atlantic BT 89517 Australia 1976 Sell This Version
K 50297 England Dan & John Ford Coley Nights Are Forever(LP, Album) Atlantic K 50297 UK 1976 Sell This Version
BT 89517 England Dan & John Ford Coley Nights Are Forever(LP, Album) Big Tree Records BT 89517 US 1976 Sell This Version
K 50297 England Dan & John Ford Coley Nights Are Forever(LP, Album) Big Tree Records, Atlantic K 50297 UK 1976 Sell This Version
BT 89517 England Dan & John Ford Coley Nights Are Forever(LP, Album) Big Tree Records BT 89517 Canada 1976 Sell This Version
BT 89517 England Dan & John Ford Coley Nights Are Forever(LP, Album, Club, RCA) Big Tree Records BT 89517 US 1976 Sell This Version
BT 89517 England Dan & John Ford Coley Nights Are Forever(LP, Album, Mon) Big Tree Records BT 89517 US 1976 Sell This Version
BT 89517 England Dan & John Ford Coley Nights Are Forever(LP, Album, Mon) Big Tree Records BT 89517 US 1976 Sell This Version
BT 89517 England Dan & John Ford Coley Nights Are Forever(LP, Album, PR ) Big Tree Records BT 89517 US 1976 Sell This Version
BT 89517 England Dan & John Ford Coley Nights Are Forever(LP, Album, RI) Big Tree Records BT 89517 US 1976 Sell This Version
BT 89517 England Dan & John Ford Coley Nights Are Forever(LP, Album, RI) Big Tree Records BT 89517 US 1976 Sell This Version
HH-6182 England Dan & John Ford Coley Nights Are Forever(LP, Album, Unofficial) Holy Hawk Record Co. Ltd. HH-6182 Taiwan 1976 Sell This Version
AMCY-6142 England Dan & John Ford Coley Nights Are Forever(CD, Album, RE) Atlantic, EastWest Japan AMCY-6142 Japan 2000 Sell This Version
WOU 9517 England Dan & John Ford Coley Nights Are Forever(CD, Album) Wounded Bird Records WOU 9517 US 2005 Sell This Version
WQCP-1255 England Dan & John Ford Coley Nights Are Forever(CD, Album, RE) Atlantic WQCP-1255 Japan 2012 Sell This Version
BT 89517 England Dan & John Ford Coley Nights Are Forever(LP, Album) Big Tree Records BT 89517 US Unknown Sell This Version
BT 89517 England Dan & John Ford Coley Nights Are Forever(LP, Album) Big Tree Records BT 89517 Canada Unknown Sell This Version

Recommendations

Reviews

Add Review

ispace

ispace

April 26, 2018
referencing Nights Are Forever, CD, Album, RE, AMCY-6142
foobar2000 1.3.17 / Dynamic Range Meter 1.1.1
log date: 2018-04-26 19:53:17

--------------------------------------------------------------------------------
Analyzed: England Dan & John Ford Coley / Nights Are Forever [JP 2000 CD]
--------------------------------------------------------------------------------

DR Peak RMS Duration Track
--------------------------------------------------------------------------------
DR12 -1.27 dB -15.82 dB 2:39 01-I'd Really Love To See You Tonight
DR13 -1.00 dB -17.74 dB 3:23 02-I'll Stay
DR12 -0.50 dB -15.44 dB 3:24 03-Westward Wind
DR12 -0.61 dB -16.98 dB 3:20 04-Long Way Home
DR12 -0.58 dB -15.71 dB 2:54 05-There'll Never Be Another For Me
DR12 -1.31 dB -16.31 dB 2:51 06-Nights Are Forever Without You
DR12 -2.52 dB -18.64 dB 2:41 07-It's Not The Same
DR13 -0.80 dB -15.52 dB 2:46 08-Showboat Gambler
DR14 -2.07 dB -19.87 dB 3:32 09-The Prisoner
DR14 -1.05 dB -18.52 dB 4:08 10-Lady
DR13 -0.41 dB -14.86 dB 3:09 11-Everything's Gonna Be Alright
--------------------------------------------------------------------------------

Number of tracks: 11
Official DR value: DR13

Samplerate: 44100 Hz
Channels: 2
Bits per sample: 16
Bitrate: 933 kbps
Codec: ALAC
================================================================================