Eurythmics ‎– Greatest Hits

Label:
BMG Records (UK) Ltd. ‎– KCD1-0610
Format:
CD, Compilation
Country:
Released:
Genre:
Style:

Companies, etc.

Credits

Barcode and Other Identifiers

  • Barcode: 7 7749-915249 6 02

Other Versions (5 of 158) View All

Cat# Artist Title (Format) Label Cat# Country Year
PD74856, PD 74856 Eurythmics Greatest Hits(CD, Comp) RCA, RCA PD74856, PD 74856 Europe 1991 Sell This Version
MOVLP082, 88697685371 Eurythmics Greatest Hits(2xLP, Comp, RE, 180) Music On Vinyl, Music On Vinyl MOVLP082, 88697685371 Europe 2010 Sell This Version
74856 / TS-2240 Eurythmics Greatest Hits(Cass, Comp) RCA 74856 / TS-2240 Turkey 1991 Sell This Version
PD74856, PD 74856 Eurythmics Greatest Hits(CD, Comp, RE) RCA, BMG, RCA, BMG PD74856, PD 74856 Australasia Unknown Sell This Version
544 Eurythmics Greatest Hits(Cass, Comp, Unofficial) Poker Sound 544 Poland 1991 Sell This Version

Recommendations

Reviews

Add Review

Pastoreo

Pastoreo

July 13, 2017
edited about 1 year ago
--------------------------------------------------------------------------------
Analyzed: Eurythmics / Greatest Hits KCD1-0610

--------------------------------------------------------------------------------

DR Peak RMS Duration Track
--------------------------------------------------------------------------------
DR13 -1.72 dB -17.30 dB 3:41 01-Love Is A Stranger
DR13 -2.52 dB -17.78 dB 4:54 02-Sweet Dreams
DR13 -0.67 dB -17.25 dB 3:47 03-Who's That Girl?
DR13 -2.35 dB -17.45 dB 3:53 04-Right By Your Side
DR14 0.00 dB -16.73 dB 5:01 05-Here Comes The Rain Again
DR11 -2.18 dB -15.43 dB 4:43 06-There Must Be An Angel (Playing With My Heart)
DR14 -0.26 dB -16.44 dB 4:53 07-Sisters Are Doin' It For Themselves
DR12 -2.17 dB -17.09 dB 3:46 08-It's Alright (Baby's Coming Back)
DR12 -1.76 dB -15.12 dB 4:18 09-When Tomorrow Comes
DR15 0.00 dB -17.04 dB 3:49 10-You Have Placed A Chill In My Heart
DR13 -1.20 dB -16.39 dB 4:36 11-Miracle Of Love
DR12 -1.91 dB -16.28 dB 3:54 12-Sex Crime (1984)
DR15 0.00 dB -16.88 dB 4:13 13-Thorn In My Side
DR16 0.00 dB -17.41 dB 4:14 14-Don't Ask Me Why
DR13 -0.62 dB -17.07 dB 4:49 15-Angel
DR12 -0.49 dB -14.16 dB 4:25 16-Would I Lie To You?
DR13 -2.25 dB -17.43 dB 3:47 17-Missionary Man
DR12 -0.50 dB -15.14 dB 4:20 18-I Need A Man
--------------------------------------------------------------------------------

Number of tracks: 18
Official DR value: DR13

Good DR value