Evan Rogers ‎– Love Games

Genre:
Style:
Year:

Versions (5)

Cat# Artist Title (Format) Label Cat# Country Year
NFL1-8048 Evan Rogers Love Games(LP, Album) RCA, RCA Victor NFL1-8048 US 1985 Sell This Version
NFK1-8048 Evan Rogers Love Games(Cass, Album, Dol) RCA NFK1-8048 US 1985 Sell This Version
PL 89573 Evan Rogers Love Games(LP, Album) RCA PL 89573 Italy 1985 Sell This Version
NFL1-8048 Evan Rogers Love Games(LP, Album) RCA NFL1-8048 Canada 1985 Sell This Version
FTG 253, 88697922152 Evan Rogers Love Games(CD, Album, RE, RM, Exp) Funkytowngrooves, Sony Music Commercial Music Group FTG 253, 88697922152 US 2011 Sell This Version

Recommendations

Reviews

Add Review

ispace

ispace

August 17, 2018
referencing Love Games, CD, Album, RE, RM, Exp, FTG 253, 88697922152
foobar2000 1.3.17 / Dynamic Range Meter 1.1.1
log date: 2018-08-17 18:51:28

--------------------------------------------------------------------------------
Analyzed: Evan Rogers / Love Games [US 2011 CD]
--------------------------------------------------------------------------------

DR Peak RMS Duration Track
--------------------------------------------------------------------------------
DR10 -0.03 dB -11.40 dB 5:24 01-Hold On
DR8 -0.03 dB -10.03 dB 5:18 02-Private Joy
DR11 -0.03 dB -12.38 dB 5:51 03-Full-Time Lover
DR9 -0.03 dB -9.77 dB 5:29 04-Sweet 16
DR9 -0.02 dB -10.62 dB 4:54 05-Don't Jump To Conclusions
DR10 -0.03 dB -10.81 dB 5:14 06-1-Track Mind
DR10 -0.03 dB -11.69 dB 4:24 07-I'll Break The Rules For You
DR11 -0.03 dB -12.81 dB 5:20 08-Be Mine Tonight
DR11 0.00 dB -12.40 dB 5:44 09-Secret Love (12" Version)
DR10 -0.01 dB -11.48 dB 5:36 10-Stay Here With Me (12" Version)
DR10 -0.03 dB -11.25 dB 6:06 11-Hold On (Remix)
--------------------------------------------------------------------------------

Number of tracks: 11
Official DR value: DR10

Samplerate: 44100 Hz
Channels: 2
Bits per sample: 16
Bitrate: 952 kbps
Codec: ALAC
================================================================================