Frank Weber (2) ‎– ...As The Time Flies

Genre:
Style:
 
Year:

Versions (6)

Cat# Artist Title (Format) Label Cat# Country Year
AFL1-2963 Frank Weber (2) ...As The Time Flies(LP, Album) RCA Victor AFL1-2963 Canada 1978 Sell This Version
AFL1-2963 Frank Weber (2) ...As The Time Flies(LP, Album) RCA Victor AFL1-2963 US 1978 Sell This Version
AFL1-2963 Frank Weber (2) ...As The Time Flies(LP, Album) RCA Victor AFL1-2963 US 1978 Sell This Version
BVCM-37198 Frank Weber (2) ...As The Time Flies(CD, Album, RE, RM) BMG, RCA BVCM-37198 Japan 2001 Sell This Version
BVCM-35172 Frank Weber (2) ...As The Time Flies(CD, Album, Ltd, RE, RM, Pap) RCA BVCM-35172 Japan 2007 Sell This Version
SICP 5435 Frank Weber (2) ...As The Time Flies(CD, Album, Ltd, RE, RM) Sony Records Int'l SICP 5435 Japan 2017 Sell This Version

Recommendations

Reviews Show All 2 Reviews

Add Review

ispace

ispace

July 2, 2018
referencing ...As The Time Flies, CD, Album, RE, RM, BVCM-37198
foobar2000 1.3.17 / Dynamic Range Meter 1.1.1
log date: 2018-07-02 22:00:20

--------------------------------------------------------------------------------
Analyzed: Frank Weber / As The Time Flies [JP 2001 CD]
--------------------------------------------------------------------------------

DR Peak RMS Duration Track
--------------------------------------------------------------------------------
DR10 0.00 dB -13.74 dB 4:11 01-'71
DR12 0.00 dB -14.28 dB 4:50 02-Regina
DR13 -0.09 dB -16.81 dB 6:05 03-So Many Sides
DR13 0.00 dB -16.26 dB 4:07 04-As The Time Flies
DR10 0.00 dB -12.32 dB 6:32 05-Complicated Times
DR13 0.00 dB -17.28 dB 4:11 06-I Know, You Know
DR14 0.00 dB -16.29 dB 3:11 07-Straighten Up And Fly Right
DR13 -0.08 dB -20.14 dB 2:59 08-Parents
DR12 -0.01 dB -15.80 dB 4:43 09-Shining In You
--------------------------------------------------------------------------------

Number of tracks: 9
Official DR value: DR12

Samplerate: 44100 Hz
Channels: 2
Bits per sample: 16
Bitrate: 847 kbps
Codec: ALAC
================================================================================
Media-Rite

Media-Rite

December 5, 2010
referencing ...As The Time Flies, LP, Album, AFL1-2963
All of these pics are from the Canadian release. I will fix it soon.