Frankie Bleu ‎– Who's Foolin' Who?

Label:
Victor ‎– VICP-61841
Format:
CD, Album, Reissue
Country:
Released:
Genre:
Style:
AOR

Tracklist

1 Baby Don't Stop 3:52
2 Who's Foolin' Who? 3:21
3 Just For You (Suzanne's Song) 4:20
4 Where Would I Be Now? 3:42
5 Get Away 3:36
6 I'm Waiting For Your Love 3:37
7 Take Your Time (Vanessa's Song) 3:22
8 You Never Ever Call Me Baby 4:10
9 Baby We're Alive 4:19

Companies, etc.

Barcode and Other Identifiers

  • Barcode: 4 988002 430635

Other Versions (5 of 7) View All

Cat# Artist Title (Format) Label Cat# Country Year
UNI-9503 Frankie Bleu Who's Foolin' Who?(LP, Album, Promo) Unicorn Records UNI-9503 US 1981 Sell This Version
VICP-63254 Frankie Bleu Who's Foolin' Who?(CD, Album, RE, RM) Victor VICP-63254 Japan 2006 Sell This Version
VIP-6825 Frankie Bleu Who's Foolin' Who?(LP, Album) Unicorn Records VIP-6825 Japan 1982 Sell This Version
VIP-6825 Frankie Bleu Who's Foolin' Who?(LP, Album, Promo) Victor VIP-6825 Japan 1981 Sell This Version
UNI-9503 Frankie Bleu Who's Foolin' Who?(LP) Unicorn Records UNI-9503 US 1981 Sell This Version

Recommendations

Reviews

Add Review

ispace

ispace

August 21, 2018
:-(

foobar2000 1.3.17 / Dynamic Range Meter 1.1.1
log date: 2018-08-21 21:56:58

--------------------------------------------------------------------------------
Analyzed: Frankie Bleu / Who's Foolin' Who? [JP 2002 CD]
--------------------------------------------------------------------------------

DR Peak RMS Duration Track
--------------------------------------------------------------------------------
DR6 0.00 dB -7.57 dB 3:54 01-Baby Don't Stop
DR7 0.00 dB -8.23 dB 3:22 02-Who's Foolin' Who?
DR7 0.00 dB -9.52 dB 4:24 03-Just For You (Suzanne's Song)
DR8 0.00 dB -9.46 dB 3:43 04-Where Would I Be Now?
DR8 0.00 dB -9.11 dB 3:39 05-Get Away
DR7 0.00 dB -8.15 dB 3:37 06-I'm Waiting For Your Love
DR7 0.00 dB -9.15 dB 3:23 07-Take You Time (Vanessa's Song)
DR7 0.00 dB -8.85 dB 4:03 08-You Never Ever Call Me Baby
DR7 0.00 dB -9.14 dB 4:22 09-Baby We're Alive
--------------------------------------------------------------------------------

Number of tracks: 9
Official DR value: DR7

Samplerate: 44100 Hz
Channels: 2
Bits per sample: 16
Bitrate: 983 kbps
Codec: ALAC
================================================================================