Freddie Mercury ‎– Mr. Bad Guy

Label:
CBS ‎– CDCBS 86312, CBS ‎– CK 40071
Format:
CD, Album
Country:
Released:
Genre:
Style:

Companies, etc.

Credits

Notes

(P) 1985 CBS Inc.
Made in France by MPO.

Track duration track 14 incorrectly printed as 7:18

Barcode and Other Identifiers

  • Rights Society: BIEM/STEMRA
  • Label Code (On Sleeve): LC 0149
  • Label Code (On Disc): LC -0149
  • Matrix / Runout: CBS 86312 MPO 02.
  • Barcode: none

Other Versions (5 of 87) View All

Cat# Artist Title (Format) Label Cat# Country Year
CBS 86312 Freddie Mercury Mr. Bad Guy(LP, Album) CBS CBS 86312 UK 1985 Sell This Version
008 Freddie Mercury Mr. Bad Guy(Cass, Album, Unofficial) Star 008 Poland Unknown Sell This Version
RMCD 006 Freddie Mercury Mr. Bad Guy(CD, Album, S/Edition, Unofficial, Pin) Royalty Music RMCD 006 Germany Unknown Sell This Version
BM-CD 746 Freddie Mercury Mr. Bad Guy(Cass, Album, Unofficial) Baron Music BM-CD 746 Poland 1992 Sell This Version
40-86312 Freddie Mercury Mr. Bad Guy(Cass, Album) CBS 40-86312 Spain 1985 Sell This Version

Recommendations

Reviews

Add Review

ispace

ispace

April 9, 2018
foobar2000 1.3.17 / Dynamic Range Meter 1.1.1
log date: 2018-04-09 20:04:10

--------------------------------------------------------------------------------
Analyzed: Freddie Mercury / Mr. Bad Guy
--------------------------------------------------------------------------------

DR Peak RMS Duration Track
--------------------------------------------------------------------------------
DR11 -2.20 dB -15.46 dB 3:42 01-Let's Turn It On
DR11 -1.50 dB -16.90 dB 4:07 02-Made In Heaven
DR11 -1.29 dB -15.35 dB 3:39 03-I Was Born To Love You
DR13 -1.85 dB -16.77 dB 3:30 04-Foolin' Around
DR13 -1.25 dB -17.38 dB 3:35 05-Your Kind Of Lover
DR13 -1.54 dB -17.11 dB 4:10 06-Mr. Bad Guy
DR12 -2.67 dB -18.36 dB 4:09 07-Man Made Paradise
DR11 -3.75 dB -18.94 dB 3:02 08-There Must Be More To Life Than This
DR13 -1.81 dB -16.81 dB 3:23 09-Living On My Own
DR12 -2.83 dB -17.65 dB 3:43 10-My Love Is Dangerous
DR13 -3.00 dB -19.03 dB 3:46 11-Love Me Like There's No Tomorrow
DR12 -0.11 dB -15.00 dB 5:06 12-Let's Turn It On (12" Version)
DR13 -0.08 dB -15.18 dB 7:02 13-I Was Born To Love You (12" Version)
DR13 0.00 dB -16.72 dB 6:40 14-Living On My Own (12" Version)
--------------------------------------------------------------------------------

Number of tracks: 14
Official DR value: DR12

Samplerate: 44100 Hz
Channels: 2
Bits per sample: 16
Bitrate: 862 kbps
Codec: ALAC
================================================================================