Gary Portnoy ‎– Gary Portnoy

Genre:
Style:
 
Year:

Versions (8)

Cat# Artist Title (Format) Label Cat# Country Year
NJC 36755 Gary Portnoy Gary Portnoy(LP, Album) Columbia NJC 36755 US 1980 Sell This Version
NJC 36755 Gary Portnoy Gary Portnoy(LP, Album, Promo) Columbia NJC 36755 US 1980 Sell This Version
SRCS 6227 Gary Portnoy Gary Portnoy(CD, Album, Promo, RE) Sony Records SRCS 6227 Japan 1992 Sell This Version
SRCS 6227 Gary Portnoy Gary Portnoy(CD, Album, RE) Sony Records SRCS 6227 Japan 1992 Sell This Version
SICP 8060 Gary Portnoy Gary Portnoy(CD, Album, RE) Sony Records Int'l SICP 8060 Japan 2002 Sell This Version
Cobalt Hour 031 Gary Portnoy Gary Portnoy(CD, Album, RE, RM) RCA Cobalt Hour 031 South Korea 2011 Sell This Version
VSCD-2525 Gary Portnoy Gary Portnoy(CD, Album, RM) Vivid Sound VSCD-2525 Japan 2012 Sell This Version
SICP 4885 Gary Portnoy Gary Portnoy(CD, Album, RM) Sony Records Int'l SICP 4885 Japan 2016 Sell This Version

Reviews

Add Review

ispace

ispace

August 10, 2018
referencing Gary Portnoy, CD, Album, RM, SICP 4885
foobar2000 1.3.17 / Dynamic Range Meter 1.1.1
log date: 2018-08-10 20:33:25

--------------------------------------------------------------------------------
Analyzed: Gary Portnoy / Gary Portnoy [JP 2016 CD]
--------------------------------------------------------------------------------

DR Peak RMS Duration Track
--------------------------------------------------------------------------------
DR12 0.00 dB -14.87 dB 4:05 01-It's Gonna Be A Long Night
DR11 0.00 dB -13.06 dB 4:08 02-The Driver
DR10 0.00 dB -13.50 dB 4:19 03-Half Moon
DR11 0.00 dB -13.06 dB 3:46 04-The Lady Is A Liar
DR12 0.00 dB -14.93 dB 3:38 05-Late Night Confession
DR12 0.00 dB -15.91 dB 4:16 06-When The Night Ends
DR10 0.00 dB -11.54 dB 3:55 07-You Can't Get Away With That
DR12 0.00 dB -14.52 dB 4:03 08-Goodbye Never Felt This Good
DR13 0.00 dB -15.86 dB 4:11 09-Come To Me Tonight
DR13 0.00 dB -15.86 dB 4:37 10-Say Goodnight
DR12 -24.11 dB -40.87 dB 0:24 11-Say Goodnight (Reprise)
--------------------------------------------------------------------------------

Number of tracks: 11
Official DR value: DR12

Samplerate: 44100 Hz
Channels: 2
Bits per sample: 16
Bitrate: 416 kbps
Codec: ALAC
================================================================================