Habakuk ‎– Rozczochrany Łeb

Label:
Gigant Records ‎– GR 282
Format:
CD, Single, Enhanced, Mixed
Country:
Released:
Genre:
Style:
 

Companies, etc.

Credits

Notes

Video:
Realizacja: Grzegorz P. Kowalski
Produkcja: Paweł Maliszczak & Gustaw Szepke

Format : MPEG-PS
File size : 35.4 MiB
Duration : 3 min 32 s

Overall bit rate : 1 396 kb/s
Width : 352 pixels
Height : 288 pixels
Display aspect ratio : 4:3
Frame rate : 25.000 FPS
Standard : PAL
Stream size : 29.0 MiB (82%)

Format : MPEG Audio
Bit rate : 224 kb/s
Channel(s) : 2 channels
Sampling rate : 44.1 kHz
Compression mode : Lossy
Stream size : 5.68 MiB (16%)

Barcode and Other Identifiers

  • Barcode (Text): 6 64125 12962 8
  • Matrix / Runout: www.takt.com.pl [logo] TAKT [/logo] 2100000037599 [logo] TAKT [/logo]
  • Mastering SID Code: ifpi LK96
  • Mould SID Code: IFPI 9R1R

Reviews