Heatwave ‎– Current

Genre:
Style:
Year:

Versions (12)

Cat# Artist Title (Format) Label Cat# Country Year
FE 38065 Heatwave Current(LP, Album, CX ) Epic FE 38065 US 1982 Sell This Version
40-85812 Heatwave Current(Cass, Album) Epic 40-85812 UK 1982 Sell This Version
EPC 85812 Heatwave Current(LP, Album) Epic EPC 85812 UK 1982 Sell This Version
EPC 85812 Heatwave Current(LP, Album) Epic EPC 85812 Europe 1982 Sell This Version
EPC CX 85812 Heatwave Current(LP, Album) Epic EPC CX 85812 Europe 1982 Sell This Version
FE 38065 Heatwave Current(LP, Album) Epic FE 38065 US 1982 Sell This Version
FE 38065 Heatwave Current(LP, Album) Epic FE 38065 Canada 1982 Sell This Version
25·3P-368 Heatwave Current(LP, Album) Epic 25·3P-368 Japan 1982 Sell This Version
25·3P-368 Heatwave Current(LP, Album, Promo, Sam) Epic 25·3P-368 Japan 1982 Sell This Version
ESCA 7881 Heatwave Current(CD, Album, RE) Epic ESCA 7881 Japan 2001 Sell This Version
EICP 1375 Heatwave Current(CD, Album, RE, Pap) Epic EICP 1375 Japan 2010 Sell This Version
CDBBR 0010 Heatwave Current(CD, Album, RE, RM) Big Break Records CDBBR 0010 UK 2010 Sell This Version

Recommendations

Reviews Show All 3 Reviews

Add Review

ispace

ispace

February 18, 2019
referencing Current, CD, Album, RE, ESCA 7881
foobar2000 1.3.17 / Dynamic Range Meter 1.1.1
log date: 2019-02-18 20:42:35

--------------------------------------------------------------------------------
Analyzed: Heatwave / Current [JP 2001 CD]
--------------------------------------------------------------------------------

DR Peak RMS Duration Track
--------------------------------------------------------------------------------
DR10 0.00 dB -11.92 dB 4:21 01-Lettin' It Loose
DR11 -0.15 dB -11.97 dB 4:58 02-State To State
DR11 -0.14 dB -13.81 dB 5:35 03-Look After Love
DR9 -0.05 dB -10.94 dB 4:36 04-Naturally
DR11 -0.03 dB -12.00 dB 5:12 05-The Big Guns
DR10 -0.03 dB -11.80 dB 4:39 06-Find It Your Heart
DR10 -0.07 dB -11.51 dB 5:59 07-Hold On To The One
DR12 0.00 dB -13.17 dB 6:15 08-Mind What You Find
--------------------------------------------------------------------------------

Number of tracks: 8
Official DR value: DR10

Samplerate: 44100 Hz
Channels: 2
Bits per sample: 16
Bitrate: 898 kbps
Codec: ALAC
================================================================================
carlablondi

carlablondi

June 21, 2013
referencing Current, LP, Album, CX , FE 38065
HEATWAVE's CURRENT, what is the original pressing? The US or the UK?
GalaxyExplorer

GalaxyExplorer

November 9, 2010
referencing Current, LP, Album, EPC 85812
A delectable slice of early-80s smooth soul/funk, and possibly the best Heatwave album. It has some nice electronics and rhythm guitar, and some great harmonies, especially on the last track. My favourite track is probably "Big Guns," another Rod Temperton classic. Makes you wonder how different this genre would have been without him. Great album.