Herbie Hancock ‎– The Prisoner

Genre:
Style:
Year:

Versions (35)

Cat# Artist Title (Format) Label Cat# Country Year
BST 84321 Herbie Hancock The Prisoner(LP, Album) Blue Note BST 84321 US 1969 Sell This Version
9022 Herbie Hancock The Prisoner(8-Trk, Album) Liberty/U.A. INC. 9022 US 1969 Sell This Version
BST 84321 Herbie Hancock The Prisoner(LP, Album) Blue Note BST 84321 US 1969 Sell This Version
BST 84321 Herbie Hancock The Prisoner(LP, Album) Blue Note BST 84321 UK 1970 Sell This Version
BST 84321 Herbie Hancock The Prisoner(LP, Album, RE) Blue Note BST 84321 US 1970 Sell This Version
BST 84321 Herbie Hancock The Prisoner(LP, Album) Blue Note BST 84321 US 1971 Sell This Version
BST 84321 Herbie Hancock The Prisoner(LP, Album, RE) Blue Note BST 84321 US 1973 Sell This Version
BST-84321 Herbie Hancock The Prisoner(LP, Album, RE) Blue Note BST-84321 US 1975 Sell This Version
BNLP 12163, BNLP12163 Herbie Hancock The Prisoner(LP, Album) Blue Note, Blue Note BNLP 12163, BNLP12163 Brazil 1976 Sell This Version
GXK-8138, BST 84321 Herbie Hancock The Prisoner(LP, Album) Blue Note, Blue Note GXK-8138, BST 84321 Japan 1979 Sell This Version
CP32-5220 Herbie Hancock The Prisoner(CD, Album, Ltd, RE) Blue Note CP32-5220 Japan 1986 Sell This Version
CDP 7 46845 2 Herbie Hancock The Prisoner(CD, Album, RE) Blue Note CDP 7 46845 2 US 1987 Sell This Version
BST 84321 Herbie Hancock The Prisoner(LP, Album, Promo, RE, RM) Blue Note BST 84321 US 1987 Sell This Version
BST-84321 Herbie Hancock The Prisoner(LP, Album, RE) Blue Note BST-84321 US 1987 Sell This Version
BST-84321 Herbie Hancock The Prisoner(LP, Album, RE) Blue Note BST-84321 Europe 1987 Sell This Version
BST 84321 Herbie Hancock The Prisoner(LP, Album, RE, RM) Blue Note BST 84321 US 1987 Sell This Version
BST 84321 Herbie Hancock The Prisoner(LP, Album, RE, RM, DMM) Blue Note BST 84321 France 1987 Sell This Version
CDP 7 46845 2, CDP 0777 7 46845 2 1 Herbie Hancock The Prisoner(CD, Album, RE, RP) Blue Note, Blue Note CDP 7 46845 2, CDP 0777 7 46845 2 1 US 1995 Sell This Version
TOCJ-4321, BNST-84321 Herbie Hancock The Prisoner(CD, Album, RE, RM) Blue Note, Blue Note TOCJ-4321, BNST-84321 Japan 1998 Sell This Version
7243 5 25649 2 7 Herbie Hancock The Prisoner(CD, Album, RE, RM) Blue Note 7243 5 25649 2 7 Europe 1999 Sell This Version
7243 5 25649 2 7 Herbie Hancock The Prisoner(CD, Album, RE, RM) Blue Note 7243 5 25649 2 7 US 2000 Sell This Version
TOCJ-9370 Herbie Hancock The Prisoner(CD, Album, Ltd, RE, RM, Pap) Blue Note TOCJ-9370 Japan 2003 Sell This Version
TOCJ-6622, BST-84321 Herbie Hancock The Prisoner(CD, Album, RE, RM) Blue Note, Blue Note TOCJ-6622, BST-84321 Japan 2005 Sell This Version
TOCJ-7080 Herbie Hancock The Prisoner(CD, Album, Promo, RE, RM) Blue Note TOCJ-7080 Japan 2008 Sell This Version
TOCJ-7080 Herbie Hancock The Prisoner(CD, Album, RE, RM) Blue Note TOCJ-7080 Japan 2008 Sell This Version
none Herbie Hancock The Prisoner(5xFile, FLAC, Album, RE, 24b) Blue Note none 2014
UCCQ-5076 Herbie Hancock The Prisoner(CD, Album, RE, RM, SHM) Blue Note UCCQ-5076 Japan 2014 Sell This Version
B0022578-01, BST 8432 Herbie Hancock The Prisoner(LP, Album, RE, RM) Universal, Blue Note B0022578-01, BST 8432 US 2015 Sell This Version
00602547173102, BST 84321 Herbie Hancock The Prisoner(LP, Album, RE, RM, 180) Universal, Blue Note 00602547173102, BST 84321 Europe 2015 Sell This Version
7243 5 25649 2 7 Herbie Hancock The Prisoner(CD, Album, RE, RM) Blue Note 7243 5 25649 2 7 Europe Unknown Sell This Version
BST 84321, BST 84321K Herbie Hancock The Prisoner(LP, Album) Blue Note, Blue Note BST 84321, BST 84321K Germany Unknown Sell This Version
BST-84321 Herbie Hancock The Prisoner(LP, Album, RE) Blue Note BST-84321 US Unknown Sell This Version
BST 84321 Herbie Hancock The Prisoner(LP, Album, RE) Blue Note BST 84321 Unknown Sell This Version
BST 84321 Herbie Hancock The Prisoner(LP, Album, RE) Blue Note BST 84321 US Unknown Sell This Version
BST 84321, (BNST 84321-A/B) Herbie Hancock The Prisoner(LP, Album, RE, RM) Blue Note, Blue Note BST 84321, (BNST 84321-A/B) US Unknown Sell This Version

Recommendations

Reviews

Add Review

vouvounix

vouvounix

June 24, 2018
referencing The Prisoner, CD, Album, RE, RM, TOCJ-4321, BNST-84321

Herbie Hancock - The Prisoner (1969) [FLAC] {TOCJ-4321}/Herbie Hancock - The Prisoner (1969) [FLAC] {TOCJ-4321}_dr.txt
----------------------------------------------------------------------------------------------
DR Peak RMS Filename
----------------------------------------------------------------------------------------------

DR16 -0.57 dB -21.25 dB 05 - Promise Of The Sun.aiff
DR15 -2.10 dB -21.58 dB 04 - He Who Lives In Fear.aiff
DR13 -0.04 dB -16.85 dB 01 - I Have A Dream.aiff
DR16 -1.00 dB -20.51 dB 03 - Firewater.aiff
DR14 -0.05 dB -17.75 dB 02 - The Prisoner.aiff
----------------------------------------------------------------------------------------------

Number of Files: 5
Official DR Value: DR15

==============================================================================================