Versions (9)

Cat# Artist Title (Format) Label Cat# Country Year
DISNCD100, 801357014326 Hybrid Morning Sci-Fi(CD, Album) Distinct'ive Records, Distinct'ive Records DISNCD100, 801357014326 UK 2003 Sell This Version
DISNLP100 Hybrid Morning Sci-Fi(3x12", Album) Distinct'ive Records DISNLP100 UK 2003 Sell This Version
AVICD60295/6 Hybrid Morning Sci-Fi(CD + DVD) Avex Trax, Distinct'ive Records AVICD60295/6 Taiwan 2003 Sell This Version
DISNCD100, DISNCDX100, 801357014326 Hybrid Morning Sci-Fi(CD, Album + DVD, M/Print, S/Edition, PAL) Distinct'ive Records, Distinct'ive Records, Distinct'ive Records DISNCD100, DISNCDX100, 801357014326 UK 2003 Sell This Version
DISNCD100, DISNCDX100, 801357014326 Hybrid Morning Sci-Fi(CD, Album + DVD, S/Edition, PAL) Distinct'ive Records, Distinct'ive Records, Distinct'ive Records DISNCD100, DISNCDX100, 801357014326 UK 2003 Sell This Version
DISNCD100, DISNCDX100, 801357014326 Hybrid Morning Sci-Fi(CD, Album + DVD, S/Edition, PAL) Distinct'ive Records, Distinct'ive Records, Distinct'ive Records DISNCD100, DISNCDX100, 801357014326 UK 2003 Sell This Version
DISNCD100, 689783610028 Hybrid Morning Sci-Fi(CD, Album + DVD-V, NTSC) Distinct'ive Records, Distinct'ive Records DISNCD100, 689783610028 US 2003 Sell This Version
DP100CD Hybrid Morning Sci-Fi(CD, Album, Promo) Distinct'ive Breaks DP100CD UK 2003 Sell This Version
R8 - EEJ Hybrid Morning Scifi(CDr, Promo) Distinct'ive Breaks R8 - EEJ UK 2003 Sell This Version

Recommendations

Reviews Show All 10 Reviews

Add Review

ga456

ga456

December 21, 2018
referencing Morning Sci-Fi, CD, Album + DVD, M/Print, S/Edition, PAL, DISNCD100, DISNCDX100, 801357014326
If your CD player does not support rewinding to listen to the hidden track, here's a solution to get a hold of it.

Load into a computer with a drive that does support HTOA.
Open ExactAudioCopy
Copy image and cue sheet, you will get 1 wave file containing the full disc. (Note that the cue sheet on the US release is slightly different! - look at that release where user agt_dale_cooper did an excellent job)

Now you can already play the hidden track in the big wave file, if you want to split into individual tracks, then adapt the generated cue sheet.

PERFORMER "Hybrid"
TITLE "Morning Sci-Fi"
FILE "FILENAMEOFYOURWAVEFILE.wav" WAVE
TRACK 01 AUDIO
TITLE "Lights Go Down Knives Come Out"
INDEX 01 00:00:00
TRACK 02 AUDIO
TITLE "This Is What It Means"
INDEX 01 06:05:70
TRACK 03 AUDIO
TITLE "True to Form"
INDEX 01 07:25:33
TRACK 04 AUDIO
TITLE "Know Your Enemy"
INDEX 01 16:40:29
TRACK 05 AUDIO
TITLE "Marrakech"
INDEX 01 22:38:39
TRACK 06 AUDIO
TITLE "I'm Still Awake"
INDEX 01 28:24:11
TRACK 07 AUDIO
TITLE "Visible Noise"
INDEX 01 34:48:15
TRACK 08 AUDIO
TITLE "We Are in Control"
INDEX 01 42:00:41
TRACK 09 AUDIO
TITLE "Higher Than a Skyscraper"
INDEX 01 48:04:14
TRACK 10 AUDIO
TITLE "Steal You Away"
INDEX 01 53:38:57
TRACK 11 AUDIO
TITLE "Gravastar"
INDEX 01 59:05:11
TRACK 12 AUDIO
TITLE "Out of the Dark"
INDEX 01 64:06:72
TRACK 13 AUDIO
TITLE "Blackout"
INDEX 01 71:24:50

Open ExactAudioCopy, Tools, Split WAV with CUE sheet. Load your wav and cue files et voila, a full copy of the hidden track (and all the others) is at your disposal.
agt_dale_cooper

agt_dale_cooper

June 19, 2017
referencing Morning Sci-Fi, CD, Album + DVD-V, NTSC, DISNCD100, 689783610028
For those who wish to re-image their original CD so they can actually get at the hidden track...

Find a drive that does HTOA.
Make bin/cue Image

Use cue sheet:
PERFORMER "Hybrid"
TITLE "Morning Sci-Fi"
FILE "WHATEVER_YOU_CALLED_IT.bin" BINARY
TRACK 01 AUDIO
TITLE "Lights Go Down Knives Come Out"
INDEX 01 00:00:00
TRACK 02 AUDIO
TITLE "This Is What It Means"
INDEX 01 06:05:70
TRACK 03 AUDIO
TITLE "True To Form"
INDEX 01 07:26:21
TRACK 04 AUDIO
TITLE "Know Your Enemy"
INDEX 01 16:41:16
TRACK 05 AUDIO
TITLE "Marrakech"
INDEX 01 22:39:26
TRACK 06 AUDIO
TITLE "I'm Still Awake"
INDEX 01 28:24:72
TRACK 07 AUDIO
TITLE "Visible Noise"
INDEX 01 34:49:03
TRACK 08 AUDIO
TITLE "We Are In Control"
INDEX 01 42:01:28
TRACK 09 AUDIO
TITLE "Higher Than A Skyscraper"
INDEX 01 48:05:01
TRACK 10 AUDIO
TITLE "Steal You Away"
INDEX 01 53:39:45
TRACK 11 AUDIO
TITLE "Gravastar"
INDEX 01 59:05:73
TRACK 12 AUDIO
TITLE "Out Of The Dark"
INDEX 01 64:07:60
TRACK 13 AUDIO
TITLE "Blackout"
INDEX 01 71:25:38

WE are in control...
The_BoT

The_BoT

July 5, 2014
referencing Morning Sci-Fi, CD, Album, DISNCD100, 801357014326

For me this is the best Hybrid album. We Are In Control, Out Of The Dark, True To Form, and off course Gravastar are great tracks.

But there is one thing what's bother me.
Track 0.
"Contains hidden track located before track one. To access it, press the rewind button on your CD player at the beginning of track one until you reach time -6:07."
Yeah right. The only problem with this thing is lot of CD players does NOT tolerate this solution. I'm lucky because one of my CD players can do this.
suzie.forbes

suzie.forbes

November 15, 2013
referencing Morning Sci-Fi, 3x12", Album, DISNLP100

Awesome album, well worth owning on vinyl too. A stunning tour de force of ambient electro, beautifully produced. If you're new to Hybrid this is a good choice although "Disappear Here" from 2010 is excellent also...
s3iyaintrance

s3iyaintrance

August 1, 2013
referencing Morning Sci-Fi, 3x12", Album, DISNLP100
this album is a masterpiece of the electronic music,i like all tunes but my favorite has to be: Higher Than A Skyscraper, this tune prove the musical genius that realy are this guys,

June 12, 2006
edited over 13 years ago
referencing Morning Sci-Fi, CD + DVD, AVICD60295/6
Hybrid have really done their stuff here. A real nice collection of Downtempo music and Progressive House. The lyrical talent of Adam Taylor on this release are really nice (compared to the usual female vocals used), especially on tracks such as "I'm Still Awake", "True To Form" and "Out Of The Dark". Restricting themselves to not making an overloaded album of noises and repetitive sounds, they have made the album simple and effective. The bonus DVD is an extra goody containing some excellent bonus material about touring with Moby and the work behind "Morning Sci-Fi". For me, this is a definately good abum released from Hybrid.
scoundrel

scoundrel

October 24, 2005
edited over 13 years ago
referencing Morning Sci-Fi, CD, Album + DVD, S/Edition, PAL, DISNCD100, DISNCDX100, 801357014326

Hybrid no doubt has mastered the dark breaks on their second album, SCI-FI MORNING. But here, rather than storming clubland, they also seem to be reaching for crossover status with some indie-emo-rock vocals here and there. And, generally, the vocals work (though the lyrics can get overblown at times, but, hey, what's rock music without bombast?). "True to Form" is appealingly dark, even before the thundering beats come in. And with Peter Hook's trademark bass, the track sounds eerily close to a New Order track. "Marrakech" has little of the Middle Eastern influence that you'd expect and instead opts for stomach-rattling bass, and "I'm Still Awake" and "Steal You Away" both scream for alternative radio to pay attention. But "Visible Noise" simply rocks harder than either. "Gravastar" shows off their talent for pure electronic dance music, more than the good-but-not-great "Out of the Dark." Kirsty Hawkshaw lends her piercing vocals to "Blackout," but it's clear where the Hybrid boys' strengths are. You can hear it pounding in your head for days afterwards.
mistakos

mistakos

February 13, 2004
referencing Morning Sci-Fi, CD, Album + DVD, S/Edition, PAL, DISNCD100, DISNCDX100, 801357014326
Hybrid.. one of the best groups.. and it did not let me down once again. their new album is something that everyone should buy!! their music is so gentle to your ears that u want to keep listening to it over and over again! great work! keep on like that hybrids :)
djphrank

djphrank

December 8, 2003
referencing Morning Sci-Fi, CD, Album + DVD, S/Edition, PAL, DISNCD100, DISNCDX100, 801357014326
No matter what anyone says, Hybrid is an amazing group and they did not let me down with their new album. Simply Amazing. You must listen as I can not put into words what they have done on their album. Also for those who already have it, their is a hidden bonus track on the cd. Just goto the first track and rewind it, you'll see it start going into the negative numbers. It starts somewhere around -6:07 or somewhere around there. I don't think you can do this in a computer CD player, so you'll have to use a standalone.
djdamnage

djdamnage

August 10, 2003
referencing Morning Scifi, CDr, Promo, R8 - EEJ

When it comes down to releasing your Sophmore album, there is always that fear of falling into a "Sophmore Slump". Chris Healings and Mike Truman have escaped that pit fall by reconstructing the Hybrid sound almost entirely. Lee Mullins is out and a Adam Talyor is in, along with John Creamer (Creamer & K), Kirsty Hawkshaw (BT/Swayzak), Peter Hook (New Order) and the result is breath taking. Creating a emotional soundscape for Adam's
Doves/Elbow esqe vocals to ride on, "True To Form" (next single to be released Sept 1st) flys high. The album floats into the deep and unknown while balancing it out with cuts of nasty breakbeat mayhem. a unexplected, phenomenal album.