Icehouse ‎– Measure For Measure

Label:
Regular Records (2) ‎– CD 53180
Format:
CD, Album
Country:
Released:
Genre:
Style:

Tracklist

1 Paradise 4:44
2 No Promises 4:39
3 Mr Big 3:32
4 Angel Street 4:44
5 The Flame 4:45
6 Regular Boys 3:31
7 Cross The Border 4:22
8 Spanish Gold 4:15
9 Lucky Me 4:37
10 Baby, You're So Strange 3:58
11 Too Late Now 3:12
12 Into The Wild 4:52

Companies, etc.

Notes

All songs written by I. Davies and R. Kretschmer
except tracks: 1, 5, 8, 11 written by I. Davies
(I.D. Music/R.G.K. Music/Catsongs).
Tracks 1, 5, 6, 8, 9 Produced by David Lord.
Tracks 2, 3, 5, 7, 10, 11, 12 Produced and
Engineered by Rhett Davies.
Track 2 Mixed by David Lord and Warne Livesey.
All songs Mixed by David, assisted by Raine

(P) 1986 Regular Records Pty. Ltd Australia
(C) 1986 Regular Records Pty. Ltd Australia
All right of the Manufacturer and of the Owner of the recorded works reserved.
Unauthorized Public Performance, Copying, Hiring, Lending and Broadcasting of this recording is prohibited.

Made and printed in Japan.

Barcode and Other Identifiers

  • Matrix / Runout: DIDZ-10266 11 +++++
  • Other (DADC Code): DIDZ 10266

Other Versions (5 of 35) View All

Cat# Artist Title (Format) Label Cat# Country Year
BFV 41527 Icehouse Measure For Measure(LP, Album) Chrysalis BFV 41527 US 1986 Sell This Version
CHR 1527 Icehouse Measure For Measure(LP, Album) Chrysalis CHR 1527 Scandinavia 1986 Sell This Version
TC-ZHCR 32-1527 Icehouse Measure For Measure(Cass, Album) Chrysalis TC-ZHCR 32-1527 Indonesia 1986 Sell This Version
RMC 52060 Icehouse Measure For Measure(Cass, Album) Regular Records (2) RMC 52060 New Zealand 1986 Sell This Version
S21-56906 Icehouse Measure For Measure(CD, Album) Chrysalis S21-56906 US 1993 Sell This Version

Reviews

Add Review

ispace

ispace

April 15, 2018
foobar2000 1.3.17 / Dynamic Range Meter 1.1.1
log date: 2018-04-15 20:56:29

--------------------------------------------------------------------------------
Analyzed: Icehouse / Measure For Measure
--------------------------------------------------------------------------------

DR Peak RMS Duration Track
--------------------------------------------------------------------------------
DR13 0.00 dB -17.22 dB 4:47 01-No Promises
DR13 -0.75 dB -16.34 dB 4:41 02-Cross The Border
DR14 -0.43 dB -17.94 dB 3:33 03-Spanish Gold
DR11 -4.74 dB -18.75 dB 4:47 04-Paradise
DR14 -0.58 dB -19.47 dB 5:12 05-The Flame
DR12 -2.19 dB -17.30 dB 3:31 06-Regular Boys
DR12 -0.81 dB -17.53 dB 4:25 07-Mister Big
DR13 -0.71 dB -18.21 dB 4:18 08-Angel Street
DR13 -1.81 dB -17.42 dB 4:39 09-Lucky Me
DR11 -3.15 dB -16.43 dB 3:59 10-Baby, You're So Strange
DR13 -2.94 dB -18.88 dB 3:11 11-Too Late Now
DR16 -0.15 dB -19.66 dB 4:54 12-Into The Wild
--------------------------------------------------------------------------------

Number of tracks: 12
Official DR value: DR13

Samplerate: 44100 Hz
Channels: 2
Bits per sample: 16
Bitrate: 790 kbps
Codec: ALAC
================================================================================