Jack Wagner ‎– All I Need

Genre:
Style:
Year:

Tracklist

Premonition 3:15
What You Don't Know 3:32
Whenever Hearts Collide 3:39
Fighting The Nights 3:06
All I Need 3:29
Make Me Believe It 3:01
Sneak Attack 3:15
After The Fact 4:05
Tell Him (That You Won't Go) 2:43
Lady Of My Heart 4:02

Versions (21)

Cat# Artist Title (Format) Label Cat# Country Year
25214-1 Jack Wagner All I Need(LP, Album) Qwest Records 25214-1 US 1984 Sell This Version
9 25089-1 B, 1-25089 Jack Wagner All I Need(12", MiniAlbum) Qwest Records, Qwest Records 9 25089-1 B, 1-25089 US 1984 Sell This Version
9 25089-1 B, 1-25089 Jack Wagner All I Need(12", MiniAlbum) Qwest Records, Qwest Records 9 25089-1 B, 1-25089 US 1984 Sell This Version
W4-25214, 4-25214 Jack Wagner All I Need(Cass, Album, Club, Col) Qwest Records, Qwest Records W4-25214, 4-25214 US 1984 Sell This Version
4-25214 Jack Wagner All I Need(Cass, Album, Club, Dol) Qwest Records 4-25214 US 1984 Sell This Version
92-52144 Jack Wagner All I Need(Cass, Album, Dol) Qwest Records 92-52144 Canada 1984 Sell This Version
QWE 9 25214-4 Jack Wagner All I Need(Cass, Album, Dol) Qwest Records QWE 9 25214-4 US 1984 Sell This Version
25089-4 Jack Wagner All I Need(Cass, MiniAlbum, Dol) Qwest Records 25089-4 US 1984 Sell This Version
925 214-1 Jack Wagner All I Need(LP) QWest Records 925 214-1 Germany 1984 Sell This Version
P-13075 Jack Wagner All I Need(LP, Album) Warner Bros. Records P-13075 Japan 1984 Sell This Version
925089-1 Jack Wagner All I Need(LP, Album) Qwest Records 925089-1 Germany 1984 Sell This Version
Warner - 3031 Jack Wagner All I Need(LP, Album) Warner Bros. Records Warner - 3031 Venezuela 1984 Sell This Version
92-52141 Jack Wagner All I Need(LP, Album) Qwest Records 92-52141 Canada 1984 Sell This Version
1-25214, 9 25214-1 Jack Wagner All I Need(LP, Album, All) Qwest Records, Qwest Records 1-25214, 9 25214-1 US 1984 Sell This Version
W1 25214, W1-25214 Jack Wagner All I Need(LP, Album, Club) Qwest Records, Qwest Records W1 25214, W1-25214 US 1984 Sell This Version
W1 25214 Jack Wagner All I Need(LP, Album, Club) Qwest Records W1 25214 Canada 1984 Sell This Version
9 25214-1, 1-25214 Jack Wagner All I Need(LP, Album, Club, RCA) Qwest Records, Qwest Records 9 25214-1, 1-25214 US 1984 Sell This Version
P-13075 Jack Wagner All I Need(LP, Promo) Warner Bros. Records P-13075 Japan 1984 Sell This Version
OWT 344, OWT-344 Jack Wagner All I Need(Cass, Album) Oasis Records (4), Qwest Records, WEA OWT 344, OWT-344 South Korea 1985 Sell This Version
WPCR-10481 Jack Wagner All I Need(CD, Album, RE) Qwest Records WPCR-10481 Japan 1999 Sell This Version
829421-10522-0 Jack Wagner All I Need(CD, Album, RE, RM) Friday Music 829421-10522-0 US 2007 Sell This Version

Recommendations

Reviews Show All 2 Reviews

Add Review

ispace

ispace

November 6, 2018
referencing All I Need, CD, Album, RE, WPCR-10481
foobar2000 1.3.17 / Dynamic Range Meter 1.1.1
log date: 2018-11-06 20:50:57

--------------------------------------------------------------------------------
Analyzed: Jack Wagner / All I Need [JP 1999 CD]
--------------------------------------------------------------------------------

DR Peak RMS Duration Track
--------------------------------------------------------------------------------
DR7 -0.10 dB -9.24 dB 3:17 01-Premonition
DR7 -0.50 dB -9.40 dB 3:33 02-What You Don't Know
DR8 -0.10 dB -10.83 dB 3:38 03-Whenever Hearts Collide
DR8 -0.53 dB -10.40 dB 3:07 04-Fighting The Nights
DR8 -0.50 dB -11.33 dB 3:31 05-All I Need
DR7 -0.44 dB -8.88 dB 3:03 06-Make Me Believe It
DR7 -0.45 dB -9.65 dB 3:16 07-Sneak Attack
DR8 -0.42 dB -10.21 dB 4:05 08-After The Fact
DR8 -0.42 dB -10.05 dB 2:44 09-Tell Him (That You Won't Go)
DR9 -0.67 dB -14.30 dB 4:02 10-Lady Of My Heart
--------------------------------------------------------------------------------

Number of tracks: 10
Official DR value: DR8

Samplerate: 44100 Hz
Channels: 2
Bits per sample: 16
Bitrate: 783 kbps
Codec: ALAC
================================================================================
Vinyl_Legacy

Vinyl_Legacy

January 17, 2016
referencing All I Need, LP, Album, Club, W1 25214, W1-25214

Loading this album onto my computer (digital conversion) seemed like it took a lot longer than 34 minutes...