Jerry Corbetta ‎– Jerry Corbetta

Genre:
Style:
Year:

Versions (4)

Cat# Artist Title (Format) Label Cat# Country Year
BSK 3230 Jerry Corbetta Jerry Corbetta(LP, Album, Win) Warner Bros. Records BSK 3230 US 1978 Sell This Version
WPCR-10506 Jerry Corbetta Jerry Corbetta(CD, Album) Warner Bros. Records WPCR-10506 Japan 1999 Sell This Version
VSCD-3517, WQCP-963 Jerry Corbetta Jerry Corbetta(CD, Album, Ltd, SHM) Vivid Sound, Warner Music Japan Inc. VSCD-3517, WQCP-963 Japan 2011 Sell This Version
WPCR-17471 Jerry Corbetta Jerry Corbetta(CD, Album, RE, RM, SHM) Warner Bros. Records WPCR-17471 Japan 2016 Sell This Version

Recommendations

Reviews Show All 2 Reviews

Add Review

ispace

ispace

December 25, 2018
referencing Jerry Corbetta, CD, Album, WPCR-10506
foobar2000 1.3.17 / Dynamic Range Meter 1.1.1
log date: 2018-12-26 13:43:51

--------------------------------------------------------------------------------
Analyzed: Jerry Corbetta / Jerry Corbetta [JP 1999 CD]
--------------------------------------------------------------------------------

DR Peak RMS Duration Track
--------------------------------------------------------------------------------
DR10 -0.31 dB -13.13 dB 3:23 01-Sensitive Soul
DR9 -0.34 dB -12.86 dB 3:44 02-If I Never Had Your Love
DR9 -0.24 dB -11.92 dB 4:47 03-I'm A Lover, Not A Fighter
DR11 -0.35 dB -12.89 dB 5:35 04-Caribbean Lady
DR8 -0.34 dB -10.65 dB 3:35 05-Free Man
DR9 -0.37 dB -12.17 dB 3:36 06-I Wish That I Was Making Love (To You Tonight)
DR10 -0.39 dB -11.90 dB 5:27 07-Green-Eyed Lady
DR9 -0.36 dB -11.34 dB 3:27 08-Celebrate Our Love
DR11 -0.29 dB -12.89 dB 7:01 09-Between A Rock And A Hard Place
--------------------------------------------------------------------------------

Number of tracks: 9
Official DR value: DR10

Samplerate: 44100 Hz
Channels: 2
Bits per sample: 16
Bitrate: 887 kbps
Codec: ALAC
================================================================================
soulie_61

soulie_61

April 11, 2014
referencing Jerry Corbetta, CD, Album, WPCR-10506

Japanese pressing, not US !