Jim Hall ‎– Concierto

Label:
Mobile Fidelity Sound Lab ‎– UDSACD 2012
Series:
Format:
SACD, Hybrid, Reissue, Remastered
Country:
Released:
Genre:
Style:

Tracklist Hide Credits

1 You'd Be So Nice To Come Home To
Written-By – Cole Porter
7:05
2 Two's Blues
Written-By – Jim Hall
3:50
3 The Answer Is Yes
Written-By – Jane Hall (3)
7:35
4 Concierto De Aranjuez
Written-By – Joaquin Rodrigo*
19:20
5 Rock Skippin'
Written-By – Billy Strayhorn, Duke Ellington
6:11
6 Unfinished Business (La Paloma Azul)
Written-By – Carlos Chávez, Johnny Andrews (2)
4:40
7 You'd Be So Nice To Come Home To (Alternate Take) 7:26
8 The Answer Is Yes (Alternate Take) 5:34
9 Rock Skippin' (Alternate Take) 6:06

Companies, etc.

Credits

Notes

Recorded at Van Gelder Studios in April 16 & 23, 1975.
Mastering by Shawn R. Britton at Mobile Fidelity Sound Lab, Sebastopol, CA, 2003.

Barcode and Other Identifiers

  • Barcode: 821797201261

Other Versions (5 of 61) View All

Cat# Artist Title (Format) Label Cat# Country Year
CTI 6060 Jim Hall Concierto(LP, Album) CTI Records CTI 6060 US 1975 Sell This Version
CTI 6060 S1 Jim Hall Concierto(LP, Album, Gat) CTI Records CTI 6060 S1 New Zealand 1975 Sell This Version
CTI 60.60 Jim Hall Concierto(LP, Album, Gat) CTI Records CTI 60.60 Germany 1975 Sell This Version
ZK 40807 Jim Hall Concierto(CD, Album, RE, RM) CBS Associated ZK 40807 US 1987 Sell This Version
ZK 65132 Jim Hall Concierto(CD, Album, RE, RM, Rem) CTI Records, Sony Music ZK 65132 US 1997 Sell This Version

Recommendations

Reviews

Add Review

vouvounix

vouvounix

March 14, 2019

Amazing sound

--------------------------------------------------------------------------------
Analyzed: Jim Hall / Concierto
--------------------------------------------------------------------------------

DR Peak RMS Duration Track
--------------------------------------------------------------------------------
DR15 -3.69 dB -21.60 dB 7:04 01-You'd Be So Nice To Come Home To
DR14 -3.93 dB -20.16 dB 3:49 02-Two's Blues
DR15 -3.43 dB -20.71 dB 7:38 03-The Answer Is Yes
DR14 -3.99 dB -21.36 dB 19:19 04-Concierto de Aranjuez
DR13 -3.83 dB -19.94 dB 6:11 05-Rock Skippin'
DR14 -4.46 dB -22.05 dB 4:40 06-Unfinished Business, based on "Paloma Azul"
DR13 -4.02 dB -21.74 dB 7:26 07-You'd Be So Nice To Come Home To (alternate take)
DR12 -3.96 dB -18.69 dB 5:34 08-The Answer Is Yes (alternate take)
DR12 -3.93 dB -20.02 dB 6:05 09-Rock Skippin' (alternate take)
--------------------------------------------------------------------------------