Jimmy Messina* ‎– Oasis

Label:
Columbia ‎– CK 36140
Format:
CD, Album, Reissue, Remastered
Country:
Released:
 
Genre:
Style:

Companies, etc.

Credits

Barcode and Other Identifiers

  • Barcode (Text): 0 7464-36140-2
  • Barcode (Scanned): 07464361402
  • Matrix / Runout: 1A CK36140 02 B
  • Matrix / Runout (Mould Hub): CMU P 104
  • SPARS Code: AAD

Other Versions (5 of 15) View All

Cat# Artist Title (Format) Label Cat# Country Year
JC 36140 Jimmy Messina* Oasis(LP, Album) Columbia JC 36140 US 1979 Sell This Version
SBP 237395 Jimmy Messina* Oasis(LP, Album) Columbia SBP 237395 Australia & New Zealand 1979 Sell This Version
JC 36140 Jimmy Messina* Oasis(LP, Album) Columbia JC 36140 US 1979 Sell This Version
ACA 8093 Jim Messina Oasis(CD, Album) Acadia ACA 8093 UK 2005 Sell This Version
SICP 8048 Jimmy Messina* Oasis(CD, Album, RE) Sony Records Int'l SICP 8048 Japan 2002 Sell This Version

Reviews

Add Review

ispace

ispace

March 2, 2018
foobar2000 1.3.17 / Dynamic Range Meter 1.1.1
log date: 2018-03-02 22:46:15

--------------------------------------------------------------------------------
Analyzed: Jimmy Messina / Oasis
--------------------------------------------------------------------------------

DR Peak RMS Duration Track
--------------------------------------------------------------------------------
DR13 -0.20 dB -15.92 dB 3:56 01-New And Different Way
DR13 -0.20 dB -15.74 dB 5:11 02-Do You Want To Dance
DR13 -0.46 dB -16.97 dB 5:55 03-Seeing You (For The First Time)
DR12 0.00 dB -13.77 dB 2:55 04-Free To Be Me
DR13 -5.03 dB -22.26 dB 2:28 05-Talk To Me
DR12 -0.20 dB -14.66 dB 4:57 06-Love Is Here
DR13 0.00 dB -14.96 dB 3:18 07-Waitin' N You
DR13 -0.20 dB -15.98 dB 5:04 08-(Is This) Lovin' You Lady
DR12 -1.44 dB -19.15 dB 7:19 09-The Magic Of Love
--------------------------------------------------------------------------------

Number of tracks: 9
Official DR value: DR13

Samplerate: 44100 Hz
Channels: 2
Bits per sample: 16
Bitrate: 734 kbps
Codec: ALAC
================================================================================