Jonathan Butler ‎– Jonathan Butler

Label:
Jive ‎– 1032-2-J
Format:
CD, Album
Country:
Released:
Genre:
Style:

Tracklist

1 Lies 4:39
2 Love Songs, Candlelight And You 5:00
3 Going Home 4:44
4 I Miss Your Love Tonight 4:20
5 Holding On 4:12
6 One More Dance 4:37
7 Take Good Care Of Me 4:28
8 Barenese 4:33
9 All Over You 4:34
10 Overflowing 4:05
11 Loving You 4:58
12 Sunset 4:15
13 Say We'll Be Together 4:00
14 Give A Little More Lovin' 4:10
15 Reunion 5:03
16 High Tide 4:42

Credits

Barcode and Other Identifiers

  • Barcode: 1241410322
  • Matrix / Runout: W. O. 8782-4 10322J MADE BY DISCTRONICS <H>

Other Versions (5 of 27) View All

Cat# Artist Title (Format) Label Cat# Country Year
ZD71515 Jonathan Butler Jonathan Butler(CD, Album) Jive ZD71515 Germany 1987 Sell This Version
HIP 46 Jonathan Butler Jonathan Butler(2xLP, Album) Jive HIP 46 UK 1987 Sell This Version
15 074 8 Jonathan Butler Jonathan Butler(2xLP, Album, Club, Gat) Jive 15 074 8 Germany 1987 Sell This Version
WD75211 Jonathan Butler Jonathan Butler(CD, Album) Jive WD75211 Europe 1987 Sell This Version
CDLIB5098 Jonathan Butler Jonathan Butler(CD, Album) Liberation Records, Jive CDLIB5098 Australia 1987 Sell This Version

Reviews

Add Review

ispace

ispace

August 2, 2018
foobar2000 1.3.17 / Dynamic Range Meter 1.1.1
log date: 2018-08-02 21:22:49

--------------------------------------------------------------------------------
Analyzed: Jonathan Butler / Jonathan Butler
--------------------------------------------------------------------------------

DR Peak RMS Duration Track
--------------------------------------------------------------------------------
DR14 -1.05 dB -17.27 dB 4:38 01-Lies
DR14 -1.86 dB -18.35 dB 4:56 02-Love Songs, Candlelight And You
DR14 -4.33 dB -19.91 dB 4:45 03-Going Home
DR15 -1.46 dB -18.13 dB 4:42 04-I Miss Your Love Tonight
DR12 -2.09 dB -16.44 dB 4:09 05-Holding On
DR12 -0.74 dB -14.06 dB 4:37 06-One More Dance
DR12 -0.37 dB -14.77 dB 4:30 07-Take Good Care Of Me
DR15 -1.07 dB -19.04 dB 4:24 08-Barenese
DR16 -2.07 dB -20.41 dB 4:34 09-All Over You
DR14 -0.43 dB -16.72 dB 4:07 10-Overflowing
DR12 -1.30 dB -16.91 dB 4:47 11-Loving You
DR14 -0.80 dB -18.13 dB 4:11 12-Sunset
DR13 -1.29 dB -16.47 dB 4:01 13-Say We'll Be Together
DR13 -0.40 dB -16.48 dB 4:13 14-Give A Little More Lovin'
DR13 -2.39 dB -17.98 dB 4:46 15-Reunion
DR15 -1.38 dB -19.39 dB 4:44 16-High Tide
--------------------------------------------------------------------------------

Number of tracks: 16
Official DR value: DR14

Samplerate: 44100 Hz
Channels: 2
Bits per sample: 16
Bitrate: 770 kbps
Codec: ALAC
================================================================================