LaToya Jackson* ‎– My Special Love

Label:
Cherry Pop ‎– CRPOP209
Format:
CD, Album, Deluxe Edition, Reissue, Remastered
Country:
Released:
Genre:
Style:

Companies, etc.

Credits

Notes

Comes with a 20 page booklet including lyrics, pictures, discography and an exclusive interview with Ollie E. Brown.

All tracks ℗1980-1981 UMG Recordings/Polydor inc. This compilation ℗ 2019 UMG Recordings/Polydor inc.
Licensed courtesy of Universal Music Group Limited. This compilation © 2019 Cherry Pop. A division of Cherry Red Records ltd.
Power Road Studios, 114 Power Road, London W4 5PY. Manufactured in the EU/MCPS. www.cherryred.co.uk

All rights reserved. Unauthorised copying, hiring, lending, reproduction, public performance and broadcasting prohibited. Made in the EU.

Barcode and Other Identifiers

  • Barcode: 5013929440982
  • Matrix / Runout: CA CRPOP209@
  • Mould SID Code: IFPI 1263

Other Versions (5 of 21) View All

Cat# Artist Title (Format) Label Cat# Country Year
PD-1-6328, 2391 521 LaToya Jackson* My Special Love(LP, Album, 18) Polydor, Polydor PD-1-6328, 2391 521 US 1981 Sell This Version
PD-1-6328, 2391 521 LaToya Jackson* My Special Love(LP, Album, TP) Polydor, Polydor PD-1-6328, 2391 521 US 1981 Sell This Version
2391 521 La Toya Jackson My Special Love(LP, Album) Polydor 2391 521 Singapore, Malaysia & Hong Kong 1981 Sell This Version
PD-1-6328 La Toya Jackson My Special Love(LP, Album) Dynamic Sounds Recording Co. Ltd. PD-1-6328 Jamaica 1981 Sell This Version
8T-1-6328 La Toya Jackson My Special Love(8-Trk, Album) Polydor, Polygram Records 8T-1-6328 US 1981 Sell This Version

Recommendations

Reviews

Add Review

ispace

ispace

July 29, 2019
foobar2000 1.4.4 / Dynamic Range Meter 1.1.1
log date: 2019-07-29 18:46:57

--------------------------------------------------------------------------------
Analyzed: La Toya Jackson / My Special Love [UK 1981/2019 CD]
--------------------------------------------------------------------------------

DR Peak RMS Duration Track
--------------------------------------------------------------------------------
DR9 0.00 dB -10.31 dB 5:35 01-Stay The Night
DR9 0.00 dB -10.70 dB 5:12 02-Fill You Up
DR9 0.00 dB -10.29 dB 3:09 03-Giving You Up
DR9 0.00 dB -10.48 dB 4:09 04-Love Song
DR9 -0.04 dB -12.19 dB 4:21 05-I Don't Want You To Go
DR9 0.00 dB -10.75 dB 3:37 06-Camp Kuchi Kaiai
DR9 -0.05 dB -11.03 dB 5:49 07-Summertime With You
DR9 0.00 dB -10.77 dB 5:05 08-Special Love
DR9 0.00 dB -10.07 dB 4:10 09-If You Feel The Funk
DR8 0.00 dB -9.88 dB 3:45 10-Are You Ready?
DR9 0.00 dB -10.19 dB 3:45 11-Stay The Night [7" Version]
DR9 -0.09 dB -11.34 dB 4:12 12-I Don't Want You To Go [7" Version]
DR9 0.00 dB -10.39 dB 4:01 13-Love Song [7" Version]
DR9 0.00 dB -10.52 dB 5:46 14-Stay The Night [Special Maxi Version]
--------------------------------------------------------------------------------

Number of tracks: 14
Official DR value: DR9

Samplerate: 44100 Hz
Channels: 2
Bits per sample: 16
Bitrate: 1004 kbps
Codec: ALAC
================================================================================