Lani Hall ‎– Sun Down Lady

Genre:
Style:
Year:

Tracklist

Love Song 2:55
Tiny Dancer 4:06
How Can I Tell You 2:56
You 3:58
Ocean Song 3:40
We Could Be Flying 3:53
Come Down In Time 3:39
Sun Down 3:30
Vincent 5:55
Wherever I May Find Him 1:53

Versions (18)

Cat# Artist Title (Format) Label Cat# Country Year
SP 4359 Lani Hall Sun Down Lady(LP, Album) A&M Records SP 4359 US 1972 Sell This Version
SP-4359 Lani Hall Sun Down Lady(LP) A&M Records SP-4359 Philippines 1972 Sell This Version
SP-4359 Lani Hall Sun Down Lady(LP) A&M Records SP-4359 Canada 1972 Sell This Version
SP 4359 Lani Hall Sun Down Lady(LP, Album) A&M Records SP 4359 US 1972 Sell This Version
AMLS 64359 Lani Hall Sun Down Lady(LP, Album) A&M Records AMLS 64359 UK 1972 Sell This Version
AML-34,647, AML 346 47 Lani Hall Sun Down Lady(LP, Album) A&M Records, A&M Records AML-34,647, AML 346 47 Australia 1972 Sell This Version
AML-147 Lani Hall Sun Down Lady(LP, Album) A&M Records AML-147 Japan 1972 Sell This Version
SP 4359 Lani Hall Sun Down Lady(LP, Album) A&M Records SP 4359 US 1972 Sell This Version
SA&M-2092 Lani Hall Sun Down Lady(LP, Album) A&M Records SA&M-2092 Brazil 1972 Sell This Version
MP-4359 Lani Hall Sun Down Lady(LP, Album, Mono, Promo) A&M Records MP-4359 US 1972 Sell This Version
SP-4359, SP 4359 Lani Hall Sun Down Lady(LP, Album, Promo) A&M Records, A&M Records SP-4359, SP 4359 US 1972 Sell This Version
SP 4359, SP-4359 Lani Hall Sun Down Lady(LP, Album, RE) A&M Records, A&M Records SP 4359, SP-4359 Canada 1972 Sell This Version
AMLS 64359 Lani Hall Sun Down Lady(LP) A&M Records AMLS 64359 UK 1974 Sell This Version
AMLS 64359 Lani Hall Sun Down Lady(LP, W/Lbl) A&M Records AMLS 64359 UK 1974 Sell This Version
VSCD-727 Lani Hall Sun Down Lady(CD, Album, RE) Vivid Sound VSCD-727 Japan 1999 Sell This Version
none Lani Hall Sun Down Lady(File, MP3, Album, RE, RM, 320) Not On Label (Lani Hall & Herb Alpert Self-released) none US 2012
SP-4359 Lani Hall Sun Down Lady(LP, Album, RE) A&M Records SP-4359 US Unknown Sell This Version
SP-4359 Lani Hall Sun Down Lady(LP, Album, RE) A&M Records SP-4359 US Unknown Sell This Version

Recommendations

Reviews

Add Review

ispace

ispace

December 26, 2019
referencing Sun Down Lady, CD, Album, RE, VSCD-727
foobar2000 1.4.4 / Dynamic Range Meter 1.1.1
log date: 2019-12-27 15:53:55

--------------------------------------------------------------------------------
Analyzed: Lani Hall / Sun Down Lady [JP 1972/1999 CD]
--------------------------------------------------------------------------------

DR Peak RMS Duration Track
--------------------------------------------------------------------------------
DR13 -0.12 dB -14.60 dB 3:00 01-Love Song
DR12 -0.01 dB -14.13 dB 4:10 02-Tiny Dancer
DR13 -0.02 dB -17.54 dB 3:00 03-How Can I Tell You
DR12 -3.33 dB -18.04 dB 4:03 04-You
DR14 -0.01 dB -17.26 dB 3:46 05-Ocean Song
DR12 -0.01 dB -17.63 dB 3:55 06-We Could Be Flying
DR12 -0.02 dB -15.89 dB 3:42 07-Come Down in Time
DR13 -0.01 dB -15.59 dB 3:33 08-Sun Down
DR14 -1.35 dB -20.43 dB 5:59 09-Vincent
DR11 -1.29 dB -19.58 dB 1:55 10-Wherever I May Find Him
--------------------------------------------------------------------------------

Number of tracks: 10
Official DR value: DR13

Samplerate: 44100 Hz
Channels: 2
Bits per sample: 16
Bitrate: 672 kbps
Codec: ALAC
================================================================================