Lee Ritenour ‎– Earth Run

Genre:
Style:
Year:

Tracklist

Soaring 5:38
Earth Run 4:38
If I'm Dreamin' (Don't Wake Me) 5:11
Watercolors 5:16
The Sauce 4:22
Butterfly 5:11
Sanctuary 4:45
Water From The Moon 5:33

Versions (26)

Cat# Artist Title (Format) Label Cat# Country Year
GRP-A-1021 Lee Ritenour Earth Run(LP, Album) GRP GRP-A-1021 US 1986 Sell This Version
GRD-9538 Lee Ritenour Earth Run(CD, Album) GRP GRD-9538 US 1986 Sell This Version
GRP-D-9538 Lee Ritenour Earth Run(CD, Album) GRP GRP-D-9538 US 1986 Sell This Version
GRP-D-9538 Lee Ritenour Earth Run(CD, Album, Club) GRP GRP-D-9538 US 1986 Sell This Version
VDJ-1040 Lee Ritenour Earth Run(CD, Album, Gre) GRP VDJ-1040 Japan 1986 Sell This Version
VDJ-1040 Lee Ritenour Earth Run(CD, Album, Promo) GRP VDJ-1040 Japan 1986 Sell This Version
VDJ-1040 Lee Ritenour Earth Run(CD, Album, Yel) GRP VDJ-1040 Japan 1986 Sell This Version
GRP-C-1021 Lee Ritenour Earth Run(Cass, Album, Chr) GRP GRP-C-1021 US 1986 Sell This Version
GRC-1021 Lee Ritenour Earth Run(Cass, Album, Dol) GRP GRC-1021 US 1986 Sell This Version
VIJ-28082, GRP-A-1021-A Lee Ritenour Earth Run(LP, Album) GRP, GRP VIJ-28082, GRP-A-1021-A Japan 1986 Sell This Version
GRP A 1021 Lee Ritenour Earth Run(LP, Album) GRP GRP A 1021 Canada 1986 Sell This Version
GRP 91021 Lee Ritenour Earth Run(LP, Album) GRP GRP 91021 Germany 1986 Sell This Version
177.012 Lee Ritenour Earth Run(LP, Album) GRP 177.012 Brazil 1986 Sell This Version
GRP-A-1021 Lee Ritenour Earth Run(LP, Album) GRP GRP-A-1021 Finland 1986 Sell This Version
GRP-A-1021 Lee Ritenour Earth Run(LP, Album, Club) GRP GRP-A-1021 US 1986 Sell This Version
GRP 91 021 Lee Ritenour Earth Run(LP, Album, DMM) GRP GRP 91 021 Switzerland 1986 Sell This Version
GRP 91 021 Lee Ritenour Earth Run(LP, Album, DMM) GRP GRP 91 021 Switzerland 1986 Sell This Version
GRP-A-1021 Lee Ritenour Earth Run(LP, Album, Promo) GRP GRP-A-1021 US 1986 Sell This Version
VIJ-28082, GRP-A-1021-A Lee Ritenour Earth Run(LP, Album, Promo) GRP, GRP VIJ-28082, GRP-A-1021-A Japan 1986 Sell This Version
SZPR-026 Lee Ritenour Earth Run(LP, Album) Seoul Records SZPR-026 South Korea 1987 Sell This Version
GRP-D-9538 Lee Ritenour Earth Run(CD, Album) GRP GRP-D-9538 US 1990 Sell This Version
GRP-D-9538 Lee Ritenour Earth Run(CD, Album, RE) GRP GRP-D-9538 Europe 1990 Sell This Version
UCCO-5186 Lee Ritenour Earth Run(CD, Album, RE, RM) Concord Records UCCO-5186 Japan 2015 Sell This Version
CRE-38168-02 Lee Ritenour Earth Run(CD, Album, RE, RM) Concord Records CRE-38168-02 US 2016 Sell This Version
GRP 95382 Lee Ritenour Earth Run(CD, Album) GRP GRP 95382 Germany Unknown Sell This Version
GRP 95382 Lee Ritenour Earth Run(CD, Album) GRP GRP 95382 Europe Unknown Sell This Version

Recommendations

Reviews

Add Review

ispace

ispace

June 1, 2018
referencing Earth Run, CD, Album, GRD-9538
foobar2000 1.3.17 / Dynamic Range Meter 1.1.1
log date: 2018-06-01 21:48:48

--------------------------------------------------------------------------------
Analyzed: Lee Ritenour / Earth Run
--------------------------------------------------------------------------------

DR Peak RMS Duration Track
--------------------------------------------------------------------------------
DR14 -1.32 dB -17.23 dB 5:39 01-Soaring
DR15 -0.71 dB -18.34 dB 4:40 02-Earth Run
DR14 -0.77 dB -17.09 dB 5:12 03-If I'm Dreamin' (Don't Wake Me)
DR15 -0.01 dB -19.68 dB 5:15 04-Watercolors
DR14 -0.45 dB -16.47 dB 4:23 05-The Sauce
DR16 -0.31 dB -19.74 dB 5:12 06-Butterfly
DR16 -0.62 dB -19.39 dB 3:53 07-Hero
DR15 -1.83 dB -19.32 dB 4:47 08-Sanctuary
DR16 -1.11 dB -20.67 dB 5:33 09-Water From The Moon
--------------------------------------------------------------------------------

Number of tracks: 9
Official DR value: DR15

Samplerate: 44100 Hz
Channels: 2
Bits per sample: 16
Bitrate: 756 kbps
Codec: ALAC
================================================================================