Lindemann ‎– Skills In Pills

Label:
Warner Music Central Europe ‎– 825646111848
Format:
Vinyl, LP, Album
Country:
Released:
Genre:
Style:

Tracklist

A1 Skills In Pills 4:13
A2 Ladyboy 3:20
A3 Fat 4:12
A4 Fish On 4:12
A5 Children Of The Sun 3:40
B1 Home Sweet Home 3:45
B2 Cowboy 3:11
B3 Golden Shower 4:25
B4 Yukon 4:44
B5 Praise Abort 4:44
B6 That's My Heart 4:35

Companies, etc.

Credits

Notes

180g vinyl, with gatefold cover and 28-page booklet. Track B6 is a bonus track. Contains album download code.

Made in the EU.

℗ & © 2015 Lindemann - under exclusive license to Warner Music Group Germany Holding GmbH / A Warner Music Group Company.

Barcode and Other Identifiers

  • Barcode (Text): 825646111848
  • Label Code: LC 14666
  • Matrix / Runout (Side A): BF91351-01 A1 SJ
  • Matrix / Runout (Side B): BF91351-01 B1 SJ

Other Versions (5 of 16) View All

Cat# Artist Title (Format) Label Cat# Country Year
825646142736 Lindemann Skills In Pills(CD, Album, Dlx, Ltd) Warner Music Central Europe 825646142736 Europe 2015 Sell This Version
825646069330 Lindemann Skills In Pills(CD, Album) Warner Music Central Europe 825646069330 Brazil 2015 Sell This Version
825646069330 Lindemann Skills In Pills(CD, Album) Warner Music Group 825646069330 Russia 2015 Sell This Version
825646111879, 2-550056 (K1) Lindemann Skills In Pills(CD, Album, S/Edition) Warner Music Central Europe, Warner Music Central Europe 825646111879, 2-550056 (K1) US 2015 Sell This Version
PCD-822 Lindemann Skills In Pills(CDr, Album, Promo, Car) Warner Music Japan PCD-822 Japan 2015 Sell This Version

Recommendations

Reviews Show All 5 Reviews

Add Review

risto.haavistu

risto.haavistu

August 28, 2017

Nothing good to add, sound is totally f...d up, disappointment.
fabiosazzo

fabiosazzo

March 12, 2017
The sound of this release is really TERRIBLE, very disappointed by Till.....
rd1994

rd1994

October 16, 2015
is it just me or is anybody elses copy real quiet? I listen to most on my vinyl on Volume setting 13. But I have to turn this one to 19 just to hear anything properly at all?
phonobox

phonobox

July 8, 2015

Sounds really aweful.
But not on the compression.
The CD is on DR6, the vinyl on DR11.
But the soundstage is bad and there are no frequencies above 16kHz.
Also the sound is without pressure in lows.
Hey Mr. Forsbäck, did you have a mp3 for the vinyl mastering???

Vinyl DR analysing:
---------------------------------------------------------------------
Analyzed: Lindemann / Skills In Pills (Vinyl)
---------------------------------------------------------------------

DR Peak RMS Duration Track
---------------------------------------------------------------------
DR11 -0.30 dB -13.65 dB 4:13 A1-Skills In Pills
DR11 -1.52 dB -14.50 dB 3:19 A2-Ladyboy
DR12 -0.47 dB -15.51 dB 4:11 A3-Fat
DR12 -0.44 dB -14.76 dB 4:10 A4-Fish On
DR12 -0.44 dB -14.23 dB 3:38 A5-Children Of The Sun
DR11 -0.87 dB -15.33 dB 3:43 B1-Home Sweet Home
DR11 -0.30 dB -13.02 dB 3:11 B2-Cowboy
DR11 -0.88 dB -14.27 dB 4:22 B3-Golden Shower
DR11 -2.08 dB -16.10 dB 4:43 B4-Yukon
DR12 -0.88 dB -14.64 dB 4:40 B5-Praise Abort
DR12 -0.61 dB -17.39 dB 4:34 B6-That's My Heart
--------------------------------------------------------------------

Number of tracks: 11
Official DR value: DR11
blitz56

blitz56

June 22, 2015
edited over 2 years ago
Sounds aweful on vinyl.