Logg ‎– Logg

Label:
Charly Records ‎– CPCD 8076
Format:
CD, Album, Reissue
Country:
Released:
Genre:
Style:

Companies, etc.

Credits

Notes

Recorded in New York City at Eras Recording and at Soundworks Studios
Mixed at Right Track Studios
Mastered at Sterling Sound

Accurate label: "Charly Salsoul"

Barcode and Other Identifiers

  • Barcode: 0 82333 25132 8
  • Matrix / Runout: CPCD 8076
  • Rights Society: SPA
  • Label Code: LC 8477
  • Other (SPARS Code): ADD

Other Versions (5 of 8) View All

Cat# Artist Title (Format) Label Cat# Country Year
SA 8544 Logg Logg(LP, Album) Salsoul Records SA 8544 US 1981 Sell This Version
RHR 5106 Logg Logg(LP, Album, RE) Rams Horn Records RHR 5106 Netherlands 1985 Sell This Version
SA 8544 Logg Logg(LP, Album) Salsoul Records SA 8544 Canada 1981 Sell This Version
OTLCD-5007 Logg Logg(CD, Album, RE, RM) Octave Lab OTLCD-5007 Japan 2012 Sell This Version
CDBBR 0235 Logg Logg(CD, Album, RE, RM) Big Break Records CDBBR 0235 UK 2013 Sell This Version

Recommendations

Reviews

Add Review

ispace

ispace

July 13, 2018
foobar2000 1.3.17 / Dynamic Range Meter 1.1.1
log date: 2018-07-14 14:05:46

--------------------------------------------------------------------------------
Analyzed: Logg / Logg
--------------------------------------------------------------------------------

DR Peak RMS Duration Track
--------------------------------------------------------------------------------
DR14 -0.61 dB -16.50 dB 5:41 01-You've Got That Something
DR12 -1.02 dB -15.98 dB 5:24 02-Dancing Into The Stars
DR13 -1.06 dB -16.03 dB 7:33 03-Something Else
DR13 -0.77 dB -17.04 dB 6:47 04-I Know You Will
DR13 -1.10 dB -15.58 dB 6:30 05-Lay It On The Line
DR12 -1.02 dB -15.16 dB 5:29 06-Sweet To Me
--------------------------------------------------------------------------------

Number of tracks: 6
Official DR value: DR13

Samplerate: 44100 Hz
Channels: 2
Bits per sample: 16
Bitrate: 957 kbps
Codec: ALAC
================================================================================