Luther Vandross ‎– Forever, For Always, For Love

Genre:
Style:
Year:

Tracklist

Bad Boy / Having A Party 5:16
You're The Sweetest One 4:47
Since I Lost My Baby 5:28
Forever, For Always, For Love 6:24
Better Love 6:26
Promise Me 4:40
She Loves Me Back 6:10
Once You Know How 4:36

Versions (23)

Cat# Artist Title (Format) Label Cat# Country Year
FE 38235 Luther Vandross Forever, For Always, For Love(LP, Album) Epic FE 38235 US 1982 Sell This Version
FE 38235 Luther Vandross Forever For Always For Love(LP, Album) Epic FE 38235 Canada 1982 Sell This Version
FET 38235 Luther Vandross Forever, For Always, For Love(Cass, Album) Epic FET 38235 US 1982 Sell This Version
25●3P-394 Luther Vandross Forever, For Always, For Love(LP, Album) Epic 25●3P-394 Japan 1982 Sell This Version
FE 38235, ELPS 4349 Luther Vandross Forever, For Always, For Love(LP, Album) Epic, Epic FE 38235, ELPS 4349 Australia 1982 Sell This Version
EPC 4606971 Luther Vandross Forever, For Always, For Love(LP, Album) Epic EPC 4606971 Europe 1982 Sell This Version
EPC 25013 Luther Vandross Forever, For Always, For Love(LP, Album) Epic EPC 25013 Europe 1982 Sell This Version
ELPS 4349 Luther Vandross Forever, For Always, For Love(LP, Album) Epic ELPS 4349 New Zealand 1982 Sell This Version
CDEPC 25013 Luther Vandross Forever, For Always, For Love(CD, Album) Epic CDEPC 25013 Netherlands 1987 Sell This Version
463001 4 Luther Vandross Forever, For Always, For Love(Cass, Album, RE) Epic 463001 4 UK & Europe 1987 Sell This Version
40 25013, 40-25013 Luther Vandross Forever, For Always, For Love(Cass, Album, RE) Epic, Epic 40 25013, 40-25013 UK & Europe 1987 Sell This Version
463001 1 Luther Vandross Forever, For Always, For Love(LP, Album, RE) Epic 463001 1 UK 1987 Sell This Version
EPC 25013 Luther Vandross Forever, For Always, For Love(LP, RE) Epic EPC 25013 UK 1987 Sell This Version
25·8P-5207 Luther Vandross Forever, For Always, For Love(CD, Album, RE) Epic 25·8P-5207 Japan 1989 Sell This Version
EK 85383 Luther Vandross Forever, For Always, For Love(CD, Album, RE, RM) Epic, Legacy EK 85383 US 2001 Sell This Version
502483 2, 5024832000 Luther Vandross Forever, For Always, For Love(CD, Album, RE, RM) Epic, Legacy, Epic, Legacy 502483 2, 5024832000 Europe 2002 Sell This Version
MOCCD 13053 Luther Vandross Forever, For Always, For Love(CD, Album, RE) Music On CD, Epic, Sony Music MOCCD 13053 Netherlands 2013 Sell This Version
EPC 463001 2 Luther Vandross Forever, For Always, For Love(CD, Album, RE) Epic EPC 463001 2 UK & Europe Unknown Sell This Version
EK 38235 Luther Vandross Forever, For Always, For Love(CD, Album, RE) Epic EK 38235 US Unknown Sell This Version
EK 38235 Luther Vandross Forever, For Always, For Love(CD, Album, RE) Epic EK 38235 US Unknown Sell This Version
EK 38235 Luther Vandross Forever, For Always, For Love(CD, Album, RE) Epic EK 38235 US Unknown Sell This Version
478052 2 Luther Vandross Forever, For Always, For Love(CD, Album, RE) Epic 478052 2 Australia Unknown Sell This Version
484460 2 Luther Vandross Forever, For Always, For Love(CD, Album, RE) Epic 484460 2 Europe Unknown Sell This Version

Recommendations

Reviews Show All 5 Reviews

Add Review

JohnnyTurbo

JohnnyTurbo

March 31, 2019
referencing Forever, For Always, For Love, LP, Album, FE 38235
This LP is worth buying just for the dancefloor boogie track, "You're The Sweetest One". Essential Luther Vandross.
ispace

ispace

April 28, 2018
referencing Forever, For Always, For Love, CD, Album, RE, 478052 2
foobar2000 1.3.17 / Dynamic Range Meter 1.1.1
log date: 2018-04-29 16:01:56

--------------------------------------------------------------------------------
Analyzed: Luther Vandross / Forever, For Always, For Love
--------------------------------------------------------------------------------

DR Peak RMS Duration Track
--------------------------------------------------------------------------------
DR13 -2.81 dB -18.83 dB 5:18 01-Bad Boy / Having A Party
DR13 -1.03 dB -16.59 dB 4:45 02-You're The Sweetest One
DR13 -1.54 dB -17.93 dB 5:29 03-Since I Lost My Baby
DR14 -4.17 dB -22.16 dB 6:20 04-Forever, For Always, For Love
DR14 -1.47 dB -18.95 dB 6:25 05-Better Love
DR15 -4.18 dB -22.33 dB 4:35 06-Promise Me
DR13 -1.56 dB -16.77 dB 6:07 07-She Loves Me Back
DR12 -4.30 dB -19.18 dB 4:36 08-Once You Know How
--------------------------------------------------------------------------------

Number of tracks: 8
Official DR value: DR13

Samplerate: 44100 Hz
Channels: 2
Bits per sample: 16
Bitrate: 806 kbps
Codec: ALAC
================================================================================
diplopy

diplopy

January 13, 2017
referencing Forever, For Always, For Love, LP, Album, EPC 25013
Can't believe lm1 and fly time records destroyed all this marvellous reality. Please Luther Bring back those humanity on today's music. Special Thanks to Bill for the get the game without photoshop
Derfunkmeister

Derfunkmeister

April 12, 2016
referencing Forever, For Always, For Love, CD, Album, RE, EK 38235
It's funny it says RE when this was the first Issue in the States.
RoyalSound

RoyalSound

October 15, 2011
edited over 9 years ago
referencing Forever, For Always, For Love, LP, Album, EPC 25013
may forgotten but the song- you´re the sweetest one -is not only a real love song, it is a floorfiller, warming up a crowd for a party start right
I like the refrain and the backing vocals ( Tawatha Agee, Cissy Houston and three lesser known ladies)
and the funky-stompin bass ( Marcus Miller) this track got from beginning to end, the chic-esque guitar does a great job to dance to too.