Luther Vandross ‎– Give Me The Reason

Genre:
Style:
Year:

Versions (27)

Cat# Artist Title (Format) Label Cat# Country Year
EPC 450134 2 Luther Vandross Give Me The Reason(CD, Album, RE) Epic EPC 450134 2 Europe Unknown Sell This Version
32・8P-170 Luther Vandross Give Me The Reason(CD, Album) Epic/Sony, Epic 32・8P-170 Japan 1986 Sell This Version
EPC 450134 2 Luther Vandross Give Me The Reason(CD, Album) Epic EPC 450134 2 Europe 1986 Sell This Version
EK 40415 Luther Vandross Give Me The Reason(CD, Album) Epic EK 40415 US 1986 Sell This Version
450134 4 Luther Vandross Give Me The Reason(Cass, Album) Epic 450134 4 UK 1986 Sell This Version
FET 40415 Luther Vandross Give Me The Reason(Cass, Album) Epic FET 40415 US 1986 Sell This Version
FE 40415 Luther Vandross Give Me The Reason(LP, Album) Epic FE 40415 Canada 1986 Sell This Version
EPC 450134 1 Luther Vandross Give Me The Reason(LP, Album) Epic EPC 450134 1 Europe 1986 Sell This Version
ELPS 4567 Luther Vandross Give Me The Reason(LP, Album) Epic ELPS 4567 Australia 1986 Sell This Version
EPC 450134 1, 450134 1 Luther Vandross Give Me The Reason(LP, Album) Epic, Epic EPC 450134 1, 450134 1 UK 1986 Sell This Version
28-3P-781 Luther Vandross Give Me The Reason(LP, Album) Epic 28-3P-781 Japan 1986 Sell This Version
EPC 450134 1 Luther Vandross Give Me The Reason(LP, Album) Epic EPC 450134 1 Spain 1986 Sell This Version
EPC 450134 1, 450134 1 Luther Vandross Give Me The Reason(LP, Album) Epic, Epic EPC 450134 1, 450134 1 UK 1986 Sell This Version
EPC 450134 1, 450134 1 Luther Vandross Give Me The Reason(LP, Album) Epic, Epic EPC 450134 1, 450134 1 UK 1986 Sell This Version
XFE 40415 Luther Vandross Give Me The Reason(LP, Album) Epic XFE 40415 Canada 1986 Sell This Version
FE 40415, E 40415 Luther Vandross Give Me The Reason(LP, Album, Car) Epic, Epic FE 40415, E 40415 US 1986 Sell This Version
FE 40415, E 40415 Luther Vandross Give Me The Reason(LP, Album, EDP) Epic, Epic FE 40415, E 40415 US 1986 Sell This Version
EPC 450134 1 Luther Vandross Give Me The Reason(LP, Album) Suzy, CBS EPC 450134 1 Yugoslavia 1987 Sell This Version
EPC 3514 Luther Vandross Give Me The Reason(CD, Album) Epic EPC 3514 South Africa 1991 Sell This Version
450134 2 Luther Vandross Give Me The Reason(CD, Album) Epic 450134 2 Australia 1991 Sell This Version
EPC 450134 2 Luther Vandross Give Me The Reason(CD, Album, RE) Epic EPC 450134 2 Europe 1991 Sell This Version
450134 4 Luther Vandross Give Me The Reason(Cass, Album) Epic 450134 4 Turkey 1994 Sell This Version
EK 85382 Luther Vandross Give Me The Reason(CD, Album, RM) Epic, Legacy EK 85382 US 2008 Sell This Version
EPC 502484 2, 5024842000 Luther Vandross Give Me The Reason(CD, Album, RM) Epic, Legacy EPC 502484 2, 5024842000 Europe 2008 Sell This Version
EPC 450134 2 Luther Vandross Give Me The Reason(CD, Album, RE) Epic EPC 450134 2 Europe Unknown Sell This Version
EK 85382 Luther Vandross Give Me The Reason(CD, Album, RM) Epic, Legacy EK 85382 US Unknown Sell This Version
EM 40415 Luther Vandross Give Me The Reason(MD, Album) Epic EM 40415 US Unknown Sell This Version

Recommendations

Reviews Show All 2 Reviews

Add Review

ispace

ispace

March 31, 2018
referencing Give Me The Reason, CD, Album, EK 40415
foobar2000 1.3.17 / Dynamic Range Meter 1.1.1
log date: 2018-04-01 10:59:32

--------------------------------------------------------------------------------
Analyzed: Luther Vandross / Give Me The Reason
--------------------------------------------------------------------------------

DR Peak RMS Duration Track
--------------------------------------------------------------------------------
DR14 0.00 dB -16.60 dB 5:11 01-Stop To Love
DR16 0.00 dB -19.04 dB 5:31 02-See Me
DR14 -0.31 dB -17.79 dB 4:47 03-I Gave It Up (When I Fell In Love)
DR13 -3.13 dB -20.01 dB 3:44 04-So Amazing
DR14 -4.23 dB -20.08 dB 4:48 05-Give Me The Reason
DR13 -2.31 dB -18.81 dB 4:45 06-There's Nothing Better Than Love
DR15 -0.31 dB -18.28 dB 5:44 07-I Really Didn't Mean It
DR17 -0.30 dB -22.02 dB 6:14 08-Because It's Really Love
DR15 -0.43 dB -20.00 dB 5:45 09-Anyone Who Had A Heart
--------------------------------------------------------------------------------

Number of tracks: 9
Official DR value: DR15

Samplerate: 44100 Hz
Channels: 2
Bits per sample: 16
Bitrate: 714 kbps
Codec: ALAC
================================================================================
ScottMusic

ScottMusic

March 12, 2017
referencing Give Me The Reason, CD, Album, RE, EPC 450134 2
What an LP. Classic that you can listen to from start to finish. Must have for any soul fan!!